<?xml version="1.0" standalone="no"?>
<!DOCTYPE svg PUBLIC "-//W3C//DTD SVG 1.1//EN" "http://www.w3.org/Graphics/SVG/1.1/DTD/svg11.dtd" >
<svg xmlns="http://www.w3.org/2000/svg" xmlns:xlink="http://www.w3.org/1999/xlink" version="1.1">
<metadata>
Created by FontForge 20170731 at Sun Apr 11 12:09:09 2021
 By Aleksey,,,
(C)2002 House Industries/Brand Design Co. Inc.
</metadata>
<defs>
<font id="NeutraText-Bold" horiz-adv-x="497" >
  <font-face 
    font-family="Neutra Text"
    font-weight="700"
    font-stretch="normal"
    units-per-em="2048"
    panose-1="2 0 0 0 0 0 0 0 0 0"
    ascent="1638"
    descent="-410"
    x-height="872"
    cap-height="1393"
    bbox="-150 -492 2456 1974"
    underline-thickness="40"
    underline-position="-312"
    unicode-range="U+000D-FB02"
  />
<missing-glyph horiz-adv-x="1024" 
 />
    <glyph glyph-name="fi" unicode="fi" horiz-adv-x="1193" 
d="M938 1018q-72 0 -124 49.5t-52 124.5q0 74 52 123t124 49t123 -49t51 -123q0 -75 -51 -124.5t-123 -49.5zM209 0v643h-146v229h146v293q0 340 321 340q78 0 130.5 -19.5t99.5 -60.5l-129 -194q-30 26 -74 26q-72 0 -72 -88v-297h590v-872h-276v643h-314v-643h-276z" />
    <glyph glyph-name="fl" unicode="fl" horiz-adv-x="1193" 
d="M209 0v643h-146v229h146v197q0 205 122.5 320.5t309.5 115.5q91 0 169 -26.5t137.5 -77t93.5 -130t34 -179.5v-1092h-276v1077q0 180 -158 180q-70 0 -113 -43t-43 -137v-205h203v-229h-203v-643h-276z" />
    <glyph glyph-name="ff" unicode="ff" horiz-adv-x="1372" 
d="M209 0v643h-146v229h146v252q0 168 79 254t232 86q134 0 228 -82l-115 -198q-29 33 -76 33q-33 0 -52.5 -22.5t-19.5 -66.5v-256h314v293q0 340 321 340q175 0 269 -110l-150 -185q-38 47 -88 47q-76 0 -76 -88v-297h236v-229h-236v-643h-276v643h-314v-643h-276z" />
    <glyph glyph-name="ffi" unicode="ffi" horiz-adv-x="1783" 
d="M1528 1018q-72 0 -124 49.5t-52 124.5q0 74 52 123t124 49t123 -49t51 -123q0 -75 -51 -124.5t-123 -49.5zM209 0v643h-146v229h146v252q0 168 79 254t232 86q134 0 228 -82l-115 -198q-29 33 -76 33q-33 0 -52.5 -22.5t-19.5 -66.5v-256h314v293q0 340 321 340
q78 0 130.5 -19.5t99.5 -60.5l-129 -194q-30 26 -74 26q-72 0 -72 -88v-297h590v-872h-276v643h-314v-643h-276v643h-314v-643h-276z" />
    <glyph glyph-name="ffl" unicode="ffl" horiz-adv-x="1783" 
d="M209 0v643h-146v229h146v252q0 168 79 254t232 86q134 0 228 -82l-115 -198q-29 33 -76 33q-33 0 -52.5 -22.5t-19.5 -66.5v-256h314v197q0 205 122.5 320.5t309.5 115.5q91 0 169 -26.5t137.5 -77t93.5 -130t34 -179.5v-1092h-276v1077q0 180 -158 180q-70 0 -113 -43
t-43 -137v-205h203v-229h-203v-643h-276v643h-314v-643h-276z" />
    <glyph glyph-name=".notdef" horiz-adv-x="1024" 
 />
    <glyph glyph-name=".notdef" horiz-adv-x="1024" 
 />
    <glyph glyph-name=".null" horiz-adv-x="0" 
 />
    <glyph glyph-name="nonmarkingreturn" horiz-adv-x="682" 
 />
    <glyph glyph-name="CR" unicode="&#xd;" horiz-adv-x="452" 
 />
    <glyph glyph-name="space" unicode=" " horiz-adv-x="452" 
 />
    <glyph glyph-name="exclam" unicode="!" horiz-adv-x="579" 
d="M180 473l-45 920h309l-45 -920h-219zM291 -12q-72 0 -123 49.5t-51 124.5q0 74 51 123t123 49q70 0 121 -49t51 -123q0 -75 -50.5 -124.5t-121.5 -49.5z" />
    <glyph glyph-name="quotedbl" unicode="&#x22;" horiz-adv-x="835" 
d="M498 887l-33 506h297l-31 -506h-233zM104 887l-30 506h295l-31 -506h-234z" />
    <glyph glyph-name="numbersign" unicode="#" horiz-adv-x="1077" 
d="M125 291l51 207h-110v209h161l39 153h-110v209h161l52 199h215l-52 -199h154l51 199h215l-49 -199h109v-209h-160l-39 -153h109v-209h-162l-51 -207h-215l51 207h-154l-51 -207h-215zM444 707h154l39 153h-154z" />
    <glyph glyph-name="dollar" unicode="$" horiz-adv-x="1028" 
d="M446 -14q-164 14 -266 84.5t-151 165.5l202 114q73 -128 215 -149v0v0v0v1v0v0v1v0v1v0v1v1v0v1v1v1v1v1v1v1v1v1v1v1v1v1v1v1v1v1v1v1v1v1v1v1v1v1v1v1v1v1v1v1v1v1v1v2v1v1v1v1v1v1v1v1v1v1v2v1v1v1v1v1v2v1v1v1v1v2v1v1v1v2v1v1v2v1v1v1v2v1v1v2v1v2v1v1v2v1v1v2v1v2
v1v2v1v1v2v1v2v1v2v1v2v1v2v1v2v1v2v1v2v1v2v1v2v2v1v2v1v2v2v1v2v1v2v2v1v2v2v1v2v2v1v2v2v1v2v2v2v1v2v2v1v2v2v2v1v2v2v2v2v1v2v2v2v2v1v2v2v2v2v2v1v2v2v2v2v2v2v9q-188 44 -272 128.5t-84 205.5q0 125 90.5 215t265.5 100v207h138v-211q107 -17 186 -67t127 -113
l-178 -135q-43 71 -135 100v-204q381 -87 381 -345q0 -312 -381 -333v-222h-138v224zM446 879q-106 -11 -106 -86q0 -37 20.5 -59t85.5 -40v185zM584 197q125 15 125 92q0 39 -26.5 68t-98.5 49v-209z" />
    <glyph glyph-name="percent" unicode="%" horiz-adv-x="1751" 
d="M387 444q-140 0 -238 91.5t-98 230.5q0 138 98 229.5t238 91.5q139 0 236.5 -91.5t97.5 -229.5q0 -139 -97.5 -230.5t-236.5 -91.5zM401 0l676 1069h273l-676 -1069h-273zM1366 -18q-140 0 -238 91t-98 230q0 138 98 230t238 92q138 0 236 -92t98 -230q0 -139 -97.5 -230
t-236.5 -91zM387 651q42 0 74.5 31.5t32.5 83.5t-32.5 83.5t-74.5 31.5t-74 -31.5t-32 -83.5t32 -83.5t74 -31.5zM1366 188q42 0 74.5 31.5t32.5 83.5t-32.5 83.5t-74.5 31.5t-74 -31.5t-32 -83.5t32 -83.5t74 -31.5z" />
    <glyph glyph-name="ampersand" unicode="&#x26;" horiz-adv-x="1423" 
d="M774 752l219 -273q49 114 49 260h258q0 -272 -137 -471l217 -268h-338l-69 86q-159 -104 -359 -104q-254 0 -397 113t-143 296q0 99 36 172.5t103 128t182 111.5q-96 129 -96 276q0 140 100.5 235t268.5 95q165 0 262.5 -88.5t97.5 -235.5q0 -200 -254 -333zM639 918
q75 42 107 81.5t32 87.5q0 47 -29 74t-77 27t-79.5 -29.5t-31.5 -75.5q0 -34 13 -65.5t22 -44t39 -49.5zM817 279l-293 362q-86 -47 -118.5 -100.5t-32.5 -126.5q0 -185 241 -185q111 0 203 50z" />
    <glyph glyph-name="quotesingle" unicode="'" horiz-adv-x="442" 
d="M104 887l-30 506h295l-31 -506h-234z" />
    <glyph glyph-name="parenleft" unicode="(" horiz-adv-x="704" 
d="M487 -281q-387 374 -387 877t387 877l166 -134q-130 -158 -196 -333.5t-66 -409.5q0 -232 66 -408.5t196 -334.5z" />
    <glyph glyph-name="parenright" unicode=")" horiz-adv-x="704" 
d="M217 -281l-166 134q130 158 196 333.5t66 409.5q0 232 -66 408.5t-196 334.5l166 134q387 -374 387 -877t-387 -877z" />
    <glyph glyph-name="asterisk" unicode="*" horiz-adv-x="870" 
d="M313 737l60 228l-168 -168l-119 204l231 64l-231 63l119 205l168 -168l-60 228h242l-59 -228l168 168l120 -205l-237 -63l237 -64l-120 -204l-168 168l59 -228h-242z" />
    <glyph glyph-name="plus" unicode="+" horiz-adv-x="841" 
d="M297 199v225h-217v242h217v225h248v-225h217v-242h-217v-225h-248z" />
    <glyph glyph-name="comma" unicode="," horiz-adv-x="509" 
d="M106 -236l78 246q-102 48 -102 156q0 71 51.5 119.5t122.5 48.5q70 0 121 -49t51 -123q0 -32 -10.5 -65.5t-19.5 -52t-31 -56.5l-121 -224h-140z" />
    <glyph glyph-name="hyphen" unicode="-" horiz-adv-x="618" 
d="M74 373v245h471v-245h-471z" />
    <glyph glyph-name="hyphen" unicode="&#xad;" horiz-adv-x="618" 
d="M74 373v245h471v-245h-471z" />
    <glyph glyph-name="period" unicode="." horiz-adv-x="509" 
d="M256 -12q-72 0 -123 49.5t-51 124.5q0 74 51 123t123 49q70 0 121 -49t51 -123q0 -75 -50.5 -124.5t-121.5 -49.5z" />
    <glyph glyph-name="slash" unicode="/" horiz-adv-x="827" 
d="M-33 -262l572 1741h270l-571 -1741h-271z" />
    <glyph glyph-name="zero" unicode="0" horiz-adv-x="1280" 
d="M639 -18q-147 0 -276.5 70t-210 199t-80.5 286q0 158 80.5 285.5t209.5 196t277 68.5q149 0 278.5 -68.5t210 -196t80.5 -285.5q0 -157 -80.5 -286t-210.5 -199t-278 -70zM639 227q119 0 197.5 85t78.5 225q0 139 -78 222t-198 83q-119 0 -196.5 -83t-77.5 -222
q0 -140 78 -225t196 -85z" />
    <glyph glyph-name="one" unicode="1" horiz-adv-x="677" 
d="M258 0v840h-205v229h486v-1069h-281z" />
    <glyph glyph-name="two" unicode="2" horiz-adv-x="985" 
d="M43 0v25l408 432q106 111 131 146q41 58 41 118q0 53 -35.5 85t-93.5 32q-123 0 -179 -164l-258 69q36 161 155 252.5t280 91.5q104 0 185.5 -29t131 -78.5t75 -110.5t25.5 -130q0 -91 -55 -183t-160 -204l-30 -33q-17 -18 -48 -41.5t-53 -37.5l-22 -15q104 11 141 11
h238v-236h-877z" />
    <glyph glyph-name="three" unicode="3" horiz-adv-x="1073" 
d="M512 -211q-337 0 -479 287l239 125q64 -166 240 -166q87 0 144 57t57 154t-66 152t-166 55q-104 0 -176 -37l-20 24l237 330q15 20 33.5 40t29.5 30l11 10q-66 -10 -125 -10h-324v229h838v-22l-254 -349q-13 -17 -26.5 -32.5t-20.5 -21.5l-8 -7q139 -28 234.5 -132.5
t95.5 -264.5q0 -69 -19 -134t-59.5 -123t-98 -101t-139 -68t-178.5 -25z" />
    <glyph glyph-name="four" unicode="4" horiz-adv-x="1134" 
d="M922 213h141v-213h-141v-193h-279v193h-592v188l842 893h29v-868zM643 213v180q0 20 2.5 52t4.5 53l3 22q-32 -45 -69 -84l-148 -155q-17 -18 -38 -36.5t-34 -28.5l-12 -9q50 6 107 6h184z" />
    <glyph glyph-name="five" unicode="5" horiz-adv-x="1038" 
d="M492 -211q-177 0 -294.5 77.5t-164.5 192.5l241 121q56 -145 213 -145q87 0 138 53t51 133q0 87 -56 139t-159 52q-147 0 -273 -101l-24 11v747h696v-229h-467v-226q21 13 63.5 22t86.5 9q190 0 309 -122.5t119 -303.5q0 -88 -29.5 -164.5t-87 -136.5t-151 -94.5
t-211.5 -34.5z" />
    <glyph glyph-name="six" unicode="6" horiz-adv-x="1089" 
d="M547 -18q-129 0 -237 53t-173 151t-65 222q0 109 42 207t130 219l299 413h311l-252 -346q-20 -27 -52.5 -58.5t-54.5 -48.5l-22 -18q68 35 154 35q168 0 279.5 -108.5t111.5 -288.5q0 -130 -64 -229.5t-170 -151t-237 -51.5zM545 225q87 0 138.5 55.5t51.5 133.5
q0 77 -51.5 132.5t-138.5 55.5t-139 -55.5t-52 -132.5t52 -133t139 -56z" />
    <glyph glyph-name="seven" unicode="7" horiz-adv-x="995" 
d="M119 -193l452 1033h-512v229h883v-22l-539 -1240h-284z" />
    <glyph glyph-name="eight" unicode="8" horiz-adv-x="1105" 
d="M553 -20q-210 0 -345.5 114t-135.5 293q0 121 65 204.5t176 125.5q-145 82 -145 231q0 59 26 115t74 101.5t122.5 73.5t164.5 28t164.5 -28t121 -73.5t72 -101.5t25.5 -115q0 -151 -143 -231q111 -42 175 -125.5t64 -204.5q0 -180 -134.5 -293.5t-346.5 -113.5zM555 817
q48 0 79.5 31t31.5 80q0 50 -31.5 80t-79.5 30q-49 0 -82 -30t-33 -80q0 -49 33.5 -80t81.5 -31zM553 225q87 0 138.5 52.5t51.5 132.5q0 81 -52 136.5t-138 55.5q-87 0 -139 -55.5t-52 -136.5q0 -80 52 -132.5t139 -52.5z" />
    <glyph glyph-name="nine" unicode="9" horiz-adv-x="1089" 
d="M233 -193l254 361q21 30 53 61.5t54 47.5l22 16q-72 -37 -141 -37q-173 0 -288 109.5t-115 289.5q0 130 64 229.5t170 151t237 51.5q130 0 237 -49.5t172.5 -147.5t65.5 -228q0 -109 -40.5 -203t-131.5 -223l-301 -429h-312zM545 467q87 0 138.5 55.5t51.5 132.5
q0 78 -51.5 133.5t-138.5 55.5t-139 -56t-52 -133t52 -132.5t139 -55.5z" />
    <glyph glyph-name="colon" unicode=":" horiz-adv-x="530" 
d="M266 459q-72 0 -123 49.5t-51 124.5q0 74 51 123t123 49q70 0 121 -49t51 -123q0 -75 -50.5 -124.5t-121.5 -49.5zM266 -12q-72 0 -123 49.5t-51 124.5q0 74 51 123t123 49q70 0 121 -49t51 -123q0 -75 -50.5 -124.5t-121.5 -49.5z" />
    <glyph glyph-name="semicolon" unicode=";" horiz-adv-x="530" 
d="M266 459q-72 0 -123 49.5t-51 124.5q0 74 51 123t123 49q70 0 121 -49t51 -123q0 -75 -50.5 -124.5t-121.5 -49.5zM117 -236l78 246q-103 49 -103 156q0 71 51.5 119.5t122.5 48.5q70 0 121 -49t51 -123q0 -32 -10.5 -65.5t-19.5 -52t-31 -56.5l-121 -224h-139z" />
    <glyph glyph-name="semicolon" unicode="&#x37e;" horiz-adv-x="530" 
d="M266 459q-72 0 -123 49.5t-51 124.5q0 74 51 123t123 49q70 0 121 -49t51 -123q0 -75 -50.5 -124.5t-121.5 -49.5zM117 -236l78 246q-103 49 -103 156q0 71 51.5 119.5t122.5 48.5q70 0 121 -49t51 -123q0 -32 -10.5 -65.5t-19.5 -52t-31 -56.5l-121 -224h-139z" />
    <glyph glyph-name="less" unicode="&#x3c;" horiz-adv-x="733" 
d="M657 147l-610 342v21l610 338v-240l-219 -110l219 -111v-240z" />
    <glyph glyph-name="equal" unicode="=" horiz-adv-x="829" 
d="M74 571v236h682v-236h-682zM74 236v235h682v-235h-682z" />
    <glyph glyph-name="greater" unicode="&#x3e;" horiz-adv-x="733" 
d="M76 147v240l219 111l-219 110v240l610 -342v-21z" />
    <glyph glyph-name="question" unicode="?" horiz-adv-x="1050" 
d="M356 473v326h95q118 0 173.5 55t55.5 139q0 68 -48 120t-124 52q-80 0 -128.5 -33t-88.5 -100l-221 129q56 122 167 186t271 64q106 0 194 -35t144 -93.5t86.5 -133t30.5 -156.5q0 -165 -90.5 -269.5t-258.5 -129.5v-121h-258zM483 -12q-72 0 -123 49.5t-51 124.5
q0 74 51 123t123 49q70 0 121 -49t51 -123q0 -75 -50.5 -124.5t-121.5 -49.5z" />
    <glyph glyph-name="at" unicode="@" horiz-adv-x="1894" 
d="M977 -424q-257 0 -459 97.5t-320 287t-118 442.5q0 148 47 281t130.5 234.5t194 175.5t242.5 112.5t271 38.5q189 0 347 -55t269 -153.5t172.5 -241t61.5 -312.5q0 -238 -98.5 -365.5t-280.5 -127.5q-108 0 -179 36t-106 121q-83 -165 -279 -165q-153 0 -255.5 114
t-102.5 293t101.5 295.5t252.5 116.5q154 0 222 -123l-5 102h267v-461q0 -68 21.5 -98.5t72.5 -30.5q135 0 135 289q0 282 -161.5 419.5t-454.5 137.5q-283 0 -458 -173t-175 -457q0 -289 166.5 -455t474.5 -166q165 0 325 57l86 -192q-99 -39 -192.5 -56.5t-214.5 -17.5z
M950 205q61 0 101.5 53.5t40.5 130.5t-40.5 130.5t-101.5 53.5q-70 0 -111.5 -50t-41.5 -134t41.5 -134t111.5 -50z" />
    <glyph glyph-name="A" unicode="A" horiz-adv-x="1359" 
d="M43 0l612 1405h25l637 -1405h-301l-66 158h-565l-66 -158h-276zM481 397h367l-100 242q-18 44 -39 106.5t-33 102.5l-12 41q-41 -152 -82 -250z" />
    <glyph glyph-name="B" unicode="B" horiz-adv-x="1249" 
d="M145 0v1393h539q188 0 297 -103.5t109 -257.5q0 -95 -52 -160.5t-145 -95.5q140 -33 211.5 -123t71.5 -223q0 -190 -126.5 -310t-340.5 -120h-564zM432 879h221q69 0 111.5 35.5t42.5 95.5q0 61 -37 96t-102 35h-236v-262zM432 252h264q87 0 139 52.5t52 139.5
q0 86 -55 138.5t-152 52.5h-248v-383z" />
    <glyph glyph-name="C" unicode="C" horiz-adv-x="1464" 
d="M815 -18q-148 0 -280 54t-228.5 148t-152.5 227t-56 285t56 285t152.5 226.5t228.5 147.5t280 54q190 0 327 -69.5t230 -215.5l-219 -155q-52 84 -137.5 133t-200.5 49q-187 0 -304.5 -129t-117.5 -326t117.5 -327.5t304.5 -130.5q86 0 155.5 27.5t115.5 70t88 106.5
l223 -153q-94 -146 -240.5 -226.5t-341.5 -80.5z" />
    <glyph glyph-name="D" unicode="D" horiz-adv-x="1402" 
d="M145 0v1393h428q212 0 379 -87.5t261 -247t94 -362.5t-93.5 -362t-260.5 -246.5t-380 -87.5h-428zM432 252h127q224 0 337.5 120.5t113.5 323.5q0 204 -113.5 324.5t-337.5 120.5h-127v-889z" />
    <glyph glyph-name="E" unicode="E" horiz-adv-x="1216" 
d="M145 0v1393h922v-252h-635v-443h559v-245h-559v-201h664v-252h-951z" />
    <glyph glyph-name="F" unicode="F" horiz-adv-x="1138" 
d="M145 0v1393h897v-252h-610v-461h555v-256h-555v-424h-287z" />
    <glyph glyph-name="G" unicode="G" horiz-adv-x="1513" 
d="M854 -18q-168 0 -309.5 54t-239.5 148.5t-152.5 226.5t-54.5 285q0 204 89.5 366.5t252 254.5t369.5 92q337 0 506 -192l-195 -193q-61 62 -130 94.5t-181 32.5q-187 0 -301.5 -128.5t-114.5 -326.5q0 -201 123.5 -329.5t337.5 -128.5q167 0 272 51v205h-335v251h598
v-602q-73 -60 -218 -110.5t-317 -50.5z" />
    <glyph glyph-name="H" unicode="H" horiz-adv-x="1460" 
d="M145 0v1393h287v-713h596v713h287v-1393h-287v424h-596v-424h-287z" />
    <glyph glyph-name="I" unicode="I" horiz-adv-x="587" 
d="M152 0v1393h286v-1393h-286z" />
    <glyph glyph-name="J" unicode="J" horiz-adv-x="1015" 
d="M457 -18q-161 0 -267.5 72t-162.5 190l233 141q21 -37 35 -58t36.5 -44.5t50 -34t62.5 -10.5q76 0 115 39.5t39 140.5v975h287v-979q0 -216 -115 -324t-313 -108z" />
    <glyph glyph-name="K" unicode="K" horiz-adv-x="1329" 
d="M414 678q66 148 118 217l369 498h326l-467 -631l524 -762h-346l-371 547l-135 -162v-385h-287v1393h287v-482q0 -75 -18 -233z" />
    <glyph glyph-name="L" unicode="L" horiz-adv-x="1148" 
d="M145 0v1393h287v-1141h631v-252h-918z" />
    <glyph glyph-name="M" unicode="M" horiz-adv-x="1699" 
d="M145 0v1407h23l686 -754l676 754h24v-1407h-276v522q0 42 2.5 103t5.5 101l2 40q-83 -123 -149 -197l-277 -309h-26l-277 309q-29 33 -66.5 82t-60.5 82l-22 33q10 -150 10 -244v-522h-275z" />
    <glyph glyph-name="N" unicode="N" horiz-adv-x="1435" 
d="M1262 -12l-703 659q-31 29 -72.5 77t-67.5 81l-26 33q21 -154 21 -254v-584h-269v1405h29l703 -660q30 -28 71 -75.5t66 -81.5l26 -33q-18 158 -18 254v584h268v-1405h-28z" />
    <glyph glyph-name="O" unicode="O" horiz-adv-x="1638" 
d="M819 -18q-149 0 -282 54t-229.5 148t-153 227t-56.5 285t56.5 285.5t153 227t230 148t281.5 54.5t281.5 -54.5t230 -148t153 -227t56.5 -285.5t-56.5 -285t-153 -227t-229.5 -148t-282 -54zM819 238q188 0 307 130.5t119 327.5t-119 328t-307 131t-307 -131t-119 -328
t119 -327.5t307 -130.5z" />
    <glyph glyph-name="P" unicode="P" horiz-adv-x="1230" 
d="M145 0v1393h385q292 0 457.5 -143.5t165.5 -395.5t-166 -394.5t-457 -142.5h-98v-317h-287zM432 569h90q173 0 254.5 70.5t81.5 214.5q0 145 -82.5 216t-253.5 71h-90v-572z" />
    <glyph glyph-name="Q" unicode="Q" horiz-adv-x="1638" 
d="M1343 197l195 -224l-190 -157l-207 237q-151 -71 -322 -71q-149 0 -282 54t-229.5 148t-153 227t-56.5 285t56.5 285.5t153 227t230 148t281.5 54.5t281.5 -54.5t230 -148t153 -227t56.5 -285.5q0 -147 -51.5 -274.5t-145.5 -224.5zM961 258l-166 191l192 157l176 -203
q82 118 82 293q0 197 -119 328t-307 131t-307 -131t-119 -328t119 -327.5t307 -130.5q81 0 142 20z" />
    <glyph glyph-name="R" unicode="R" horiz-adv-x="1257" 
d="M885 434l289 -434h-332l-230 352q-41 -6 -82 -6h-98v-346h-287v1393h385q294 0 458.5 -137t164.5 -390q0 -310 -268 -432zM432 596h90q177 0 256.5 62t79.5 208t-81 210.5t-255 64.5h-90v-545z" />
    <glyph glyph-name="S" unicode="S" horiz-adv-x="1099" 
d="M547 -18q-190 0 -322.5 79.5t-199.5 212.5l233 136q51 -83 117.5 -128.5t165.5 -45.5q88 0 141 39.5t53 101.5q0 24 -5.5 43.5t-20.5 37t-28.5 29.5t-42.5 27.5t-50 25t-62 27.5l-71 31q-83 35 -142 72.5t-107 88.5t-71.5 118.5t-23.5 152.5q0 164 115 271.5t304 107.5
q140 0 239.5 -54t168.5 -175l-223 -144q-37 66 -80 94.5t-105 28.5t-99.5 -35t-37.5 -88q0 -61 38.5 -96t137.5 -78l72 -31q98 -42 163.5 -81.5t117.5 -92t76 -120.5t24 -156q0 -188 -132.5 -293.5t-342.5 -105.5z" />
    <glyph glyph-name="T" unicode="T" horiz-adv-x="1212" 
d="M463 0v1141h-397v252h1081v-252h-397v-1141h-287z" />
    <glyph glyph-name="U" unicode="U" horiz-adv-x="1404" 
d="M705 -18q-122 0 -224.5 32.5t-179 96t-119.5 164t-43 229.5v889h287v-873q0 -150 67 -215t212 -65q143 0 208.5 65t65.5 215v873h287v-889q0 -171 -75 -290.5t-199.5 -175.5t-286.5 -56z" />
    <glyph glyph-name="V" unicode="V" horiz-adv-x="1359" 
d="M678 -12l-635 1405h307l240 -537q24 -53 51 -131.5t42 -130.5l15 -53q54 194 107 315l233 537h279l-610 -1405h-29z" />
    <glyph glyph-name="W" unicode="W" horiz-adv-x="1961" 
d="M559 -12l-514 1405h303l203 -559q16 -43 34.5 -106t28.5 -104l11 -42q41 158 86 252l268 571h29l272 -571q20 -42 41.5 -105t32.5 -105l12 -42q39 156 74 252l200 559h279l-506 -1405h-29l-313 671q-16 35 -35.5 86.5t-31.5 86.5l-11 34q-43 -129 -80 -207l-325 -671h-29
z" />
    <glyph glyph-name="X" unicode="X" horiz-adv-x="1351" 
d="M55 0l455 766l-379 627h326l141 -240q18 -31 41 -78.5t37 -79.5l14 -32q39 118 80 190l135 240h305l-372 -629l462 -764h-327l-219 371q-19 32 -43.5 81t-38.5 82l-15 33q-43 -122 -86 -196l-215 -371h-301z" />
    <glyph glyph-name="Y" unicode="Y" horiz-adv-x="1396" 
d="M571 0v442l-528 951h317l246 -449q24 -44 52 -110t44 -110l17 -44q55 164 108 264l236 449h293l-496 -930v-463h-289z" />
    <glyph glyph-name="Z" unicode="Z" horiz-adv-x="1208" 
d="M55 0v25l639 1116h-526v252h969v-25l-637 -1116h602v-252h-1047z" />
    <glyph glyph-name="bracketleft" unicode="[" horiz-adv-x="690" 
d="M123 -262v1741h506v-234h-230v-1274h230v-233h-506z" />
    <glyph glyph-name="backslash" unicode="\" horiz-adv-x="827" 
d="M590 -262l-572 1741h271l571 -1741h-270z" />
    <glyph glyph-name="bracketright" unicode="]" horiz-adv-x="690" 
d="M61 -262v233h230v1274h-230v234h506v-1741h-506z" />
    <glyph glyph-name="asciicircum" unicode="^" horiz-adv-x="899" 
d="M111 915l327 492h23l327 -492h-221l-118 146l-117 -146h-221z" />
    <glyph glyph-name="underscore" unicode="_" horiz-adv-x="579" 
d="M-4 -262v246h588v-246h-588z" />
    <glyph glyph-name="grave" unicode="`" horiz-adv-x="1024" 
d="M406 1024l-213 385h315l106 -385h-208z" />
    <glyph glyph-name="a" unicode="a" horiz-adv-x="999" 
d="M623 518q-6 146 -146 146q-48 0 -89.5 -14t-62 -28.5t-46.5 -37.5l-154 164q72 70 155 106.5t224 36.5q177 0 285 -99t108 -296v-496h-274l6 121q-49 -75 -109.5 -107t-148.5 -32q-63 0 -116 14.5t-97.5 45.5t-69.5 86t-25 128q0 134 94 198t263 64h203zM623 354h-189
q-100 0 -100 -80q0 -77 119 -77q83 0 126.5 32.5t43.5 89.5v35z" />
    <glyph glyph-name="b" unicode="b" horiz-adv-x="1128" 
d="M653 -18q-197 0 -274 145l6 -127h-276v1479h276v-729q93 141 274 141q163 0 276.5 -128t113.5 -325t-116.5 -326.5t-279.5 -129.5zM573 223q89 0 140 56.5t51 158.5q0 97 -51.5 153t-139.5 56q-90 0 -143 -56.5t-53 -152.5q0 -102 53 -158.5t143 -56.5z" />
    <glyph glyph-name="c" unicode="c" horiz-adv-x="976" 
d="M555 -18q-205 0 -341 128t-136 328q0 197 136 325t341 128q125 0 211.5 -43t155.5 -131l-197 -160q-25 40 -71.5 66t-98.5 26q-92 0 -143.5 -58t-51.5 -153q0 -97 51.5 -157t143.5 -60q59 0 98 21.5t78 60.5l187 -164q-69 -78 -154 -117.5t-209 -39.5z" />
    <glyph glyph-name="d" unicode="d" horiz-adv-x="1128" 
d="M475 -18q-163 0 -279 129.5t-116 326.5t114.5 325t276.5 128q99 0 163.5 -36t108.5 -105v729h277v-1479h-277l7 127q-77 -145 -275 -145zM555 223q90 0 143.5 57t53.5 158q0 96 -53.5 152.5t-143.5 56.5q-88 0 -139 -56t-51 -153q0 -102 51 -158.5t139 -56.5z" />
    <glyph glyph-name="e" unicode="e" horiz-adv-x="1101" 
d="M360 352q42 -141 226 -141q122 0 219 70l158 -170q-70 -62 -158 -95.5t-215 -33.5q-231 0 -371.5 126.5t-140.5 329.5q0 196 138.5 324.5t342.5 128.5q229 0 353.5 -152t109.5 -387h-662zM356 512h387q-9 73 -55.5 113.5t-126.5 40.5q-171 0 -205 -154z" />
    <glyph glyph-name="f" unicode="f" horiz-adv-x="782" 
d="M209 0v643h-146v229h146v293q0 340 321 340q175 0 269 -110l-150 -185q-38 47 -88 47q-76 0 -76 -88v-297h236v-229h-236v-643h-276z" />
    <glyph glyph-name="g" unicode="g" horiz-adv-x="1007" 
d="M631 874h336v-196h-129q30 -46 30 -107q0 -141 -100.5 -232t-265.5 -91q-109 0 -178 35q-23 -20 -23 -54q0 -66 90 -69l215 -10q179 -9 276 -81.5t97 -199.5q0 -148 -117 -236t-364 -88q-227 0 -348 79t-121 208q0 133 159 193q-104 56 -104 176q0 118 121 172
q-78 84 -78 198q0 140 104.5 230t270.5 90q63 0 129 -17zM498 449q62 0 95.5 32.5t33.5 89.5q0 54 -33.5 85.5t-95.5 31.5t-95.5 -31.5t-33.5 -85.5q0 -57 33.5 -89.5t95.5 -32.5zM322 -66q-25 -28 -25 -67q0 -56 46 -85.5t155 -29.5q112 0 155 25.5t43 70.5
q0 37 -30.5 52.5t-114.5 19.5z" />
    <glyph glyph-name="h" unicode="h" horiz-adv-x="1085" 
d="M109 0v1479h276v-744q40 75 109.5 115.5t160.5 40.5q146 0 237 -102.5t91 -284.5v-504h-276v485q0 75 -36.5 114.5t-109.5 39.5q-84 0 -130 -44.5t-46 -127.5v-467h-276z" />
    <glyph glyph-name="i" unicode="i" horiz-adv-x="514" 
d="M258 1018q-72 0 -124 49.5t-52 124.5q0 74 52 123t124 49t123 -49t51 -123q0 -75 -51 -124.5t-123 -49.5zM119 0v872h276v-872h-276z" />
    <glyph glyph-name="j" unicode="j" horiz-adv-x="512" 
d="M258 1018q-72 0 -124 49.5t-52 124.5q0 74 52 123t124 49t123 -49t51 -123q0 -75 -51 -124.5t-123 -49.5zM82 -455q-71 0 -134.5 31.5t-97.5 73.5l138 164q38 -33 67 -33q64 0 64 69v1022h276v-1011q0 -152 -80 -234t-233 -82z" />
    <glyph glyph-name="k" unicode="k" horiz-adv-x="1011" 
d="M385 252v-252h-276v1479h276v-754q0 -92 -14 -188l286 335h308l-310 -356l342 -516h-321l-217 330z" />
    <glyph glyph-name="l" unicode="l" horiz-adv-x="503" 
d="M115 0v1479h274v-1479h-274z" />
    <glyph glyph-name="m" unicode="m" horiz-adv-x="1617" 
d="M109 0v872h276l-6 -135q89 154 248 154q167 0 245 -150q120 150 297 150q164 0 255.5 -102t91.5 -283v-506h-275v481q0 80 -31 119t-106 39q-80 0 -117 -41.5t-37 -130.5v-467h-274v481q0 81 -30 119.5t-105 38.5q-80 0 -118 -41.5t-38 -130.5v-467h-276z" />
    <glyph glyph-name="n" unicode="n" horiz-adv-x="1085" 
d="M109 0v872h276l-6 -143q40 78 112.5 120t163.5 42q146 0 237 -102.5t91 -284.5v-504h-276v485q0 75 -36.5 114.5t-109.5 39.5q-84 0 -130 -44.5t-46 -127.5v-467h-276z" />
    <glyph glyph-name="o" unicode="o" horiz-adv-x="1116" 
d="M559 -18q-204 0 -342.5 128t-138.5 324q0 198 138.5 327.5t342.5 129.5t341.5 -129.5t137.5 -327.5q0 -196 -137.5 -324t-341.5 -128zM559 215q91 0 144 60.5t53 158.5q0 99 -53 159t-144 60q-92 0 -145.5 -60t-53.5 -159q0 -98 54 -158.5t145 -60.5z" />
    <glyph glyph-name="p" unicode="p" horiz-adv-x="1128" 
d="M109 -434v1306h276l-6 -135q87 154 280 154q162 0 276 -128t114 -325t-116.5 -326.5t-279.5 -129.5q-96 0 -164.5 36t-103.5 99v-551h-276zM573 223q89 0 140 56.5t51 158.5q0 97 -51.5 153t-139.5 56q-90 0 -143 -56.5t-53 -152.5q0 -102 53 -158.5t143 -56.5z" />
    <glyph glyph-name="q" unicode="q" horiz-adv-x="1130" 
d="M745 -434v551q-37 -63 -105.5 -99t-164.5 -36q-163 0 -279 129.5t-116 326.5t114.5 325t276.5 128q196 0 281 -154l-7 135h277v-1306h-277zM555 223q90 0 143.5 57t53.5 158q0 96 -53.5 152.5t-143.5 56.5q-88 0 -139 -56t-51 -153q0 -102 51 -158.5t139 -56.5z" />
    <glyph glyph-name="r" unicode="r" horiz-adv-x="802" 
d="M109 0v872h276l-4 -157q78 176 256 176q67 0 135 -35l-88 -252q-59 27 -106 27q-98 0 -145.5 -55t-47.5 -189v-387h-276z" />
    <glyph glyph-name="s" unicode="s" horiz-adv-x="862" 
d="M442 -18q-258 0 -397 165l162 144q95 -92 217 -92q66 0 92.5 12.5t26.5 40.5q0 10 -3 17.5t-11.5 13.5t-18 10t-28 9t-35 9t-46.5 11t-55 14q-51 13 -91 31.5t-79 50t-60.5 81.5t-21.5 115q0 140 94 208.5t244 68.5q200 0 318 -121l-148 -158q-77 66 -168 66
q-94 0 -94 -51q0 -30 28.5 -43t108.5 -31q24 -5 37 -8q44 -10 79.5 -22t76 -34t67.5 -50t45.5 -71t18.5 -96q0 -290 -359 -290z" />
    <glyph glyph-name="t" unicode="t" horiz-adv-x="782" 
d="M496 -23q-303 0 -303 351v315h-130v229h130v455h274v-455h223v-229h-223v-324q0 -62 18 -84t54 -22q41 0 96 37l104 -193q-98 -80 -243 -80z" />
    <glyph glyph-name="u" unicode="u" horiz-adv-x="1081" 
d="M428 -18q-146 0 -236 102.5t-90 284.5v503h277v-485q0 -75 36.5 -115.5t108.5 -40.5q83 0 127.5 45.5t44.5 129.5v466h277v-872h-277l6 143q-40 -78 -111.5 -119.5t-162.5 -41.5z" />
    <glyph glyph-name="v" unicode="v" horiz-adv-x="1003" 
d="M492 -18l-474 890h306l122 -260q18 -39 36 -97t27 -96l9 -38q29 143 68 231l119 260h280l-467 -890h-26z" />
    <glyph glyph-name="w" unicode="w" horiz-adv-x="1411" 
d="M422 -23l-404 895h306l100 -247q14 -33 29.5 -81.5t24.5 -81.5l9 -32q33 123 72 195l143 270h21l151 -270q17 -31 36 -80t30 -82l10 -33q33 123 64 195l102 247h277l-408 -895h-24l-189 351q-16 28 -31 71.5t-23 72.5l-7 30q-31 -113 -66 -174l-201 -351h-22z" />
    <glyph glyph-name="x" unicode="x" horiz-adv-x="1046" 
d="M33 0l336 457l-293 415h325l72 -108q14 -21 30.5 -54.5t26.5 -57.5l9 -23q32 88 63 135l70 108h295l-289 -393l336 -479h-328l-100 150q-16 24 -36 63t-32 65l-12 27q-43 -100 -80 -155l-98 -150h-295z" />
    <glyph glyph-name="y" unicode="y" horiz-adv-x="1003" 
d="M137 -434l228 516l-347 790h306l125 -335q14 -36 29 -92.5t24 -94.5l8 -39q26 146 59 226l136 335h280l-571 -1306h-277z" />
    <glyph glyph-name="z" unicode="z" horiz-adv-x="905" 
d="M47 0v23l379 626h-332v223h754v-22l-387 -627h354v-223h-768z" />
    <glyph glyph-name="braceleft" unicode="{" horiz-adv-x="847" 
d="M612 -262q-67 0 -121.5 14t-101.5 46t-73.5 92t-26.5 143v278q0 71 -28 103t-89 32h-119v234h119q61 0 89 32t28 103v369q0 83 26.5 143t73.5 92t101.5 46t121.5 14h174v-234h-149q-41 0 -55.5 -16.5t-14.5 -52.5v-396q0 -104 -49.5 -153t-140.5 -64q91 -15 140.5 -64
t49.5 -153v-305q0 -36 14.5 -53t55.5 -17h149v-233h-174z" />
    <glyph glyph-name="bar" unicode="|" horiz-adv-x="569" 
d="M152 -262v1741h266v-1741h-266z" />
    <glyph glyph-name="braceright" unicode="}" horiz-adv-x="847" 
d="M61 -262v233h150q41 0 55.5 17t14.5 53v305q0 104 49.5 153t140.5 64q-91 15 -140.5 64t-49.5 153v396q0 36 -14.5 52.5t-55.5 16.5h-150v234h175q67 0 121.5 -14t101.5 -46t73.5 -92t26.5 -143v-369q0 -71 28 -103t89 -32h119v-234h-119q-61 0 -89 -32t-28 -103v-278
q0 -83 -26.5 -143t-73.5 -92t-101.5 -46t-121.5 -14h-175z" />
    <glyph glyph-name="asciitilde" unicode="~" horiz-adv-x="835" 
d="M254 420l-186 18q7 140 69.5 213.5t157.5 73.5q61 0 129 -41q13 -8 30.5 -20t26 -17t20 -9.5t21.5 -4.5q51 0 60 92l186 -18q-7 -140 -69 -213.5t-158 -73.5q-61 0 -129 41q-13 8 -30.5 20t-26 17t-20 9.5t-22.5 4.5q-50 0 -59 -92z" />
    <glyph glyph-name="nbspace" unicode="&#xa0;" horiz-adv-x="372" 
 />
    <glyph glyph-name="exclamdown" unicode="&#xa1;" horiz-adv-x="579" 
d="M289 1405q72 0 123 -49.5t51 -124.5q0 -74 -51 -123t-123 -49q-70 0 -121 49t-51 123q0 75 50.5 124.5t121.5 49.5zM399 920l45 -920h-309l45 920h219z" />
    <glyph glyph-name="cent" unicode="&#xa2;" horiz-adv-x="989" 
d="M485 -14q-179 24 -293 147.5t-114 304.5q0 180 113.5 303.5t293.5 145.5v221h138v-221q98 -9 171 -51t136 -119l-193 -156q-40 64 -114 84v-424q57 15 120 78l183 -160q-121 -137 -303 -153v-224h-138v224zM485 645q-62 -20 -96.5 -74.5t-34.5 -132.5q0 -79 34.5 -136
t96.5 -79v422z" />
    <glyph glyph-name="sterling" unicode="&#xa3;" horiz-adv-x="1185" 
d="M356 502h-198v209h104q-39 97 -39 176q0 165 117.5 272t327.5 107q144 0 250 -64.5t163 -183.5l-227 -135q-35 72 -77.5 104.5t-108.5 32.5q-76 0 -121 -38.5t-45 -111.5q0 -63 35 -159h317v-209h-240q39 -115 39 -215v-19q96 -47 170 -47q93 0 166 80l162 -166
q-55 -74 -137 -113.5t-178 -39.5q-143 0 -283 100q-107 -100 -246 -100q-122 0 -195 63t-73 162q0 95 67 152t166 57q59 0 127 -21q-10 35 -43 107zM406 205q-60 47 -107 47q-29 0 -47.5 -15t-18.5 -38q0 -24 19 -39t49 -15q74 0 105 60z" />
    <glyph glyph-name="currency" unicode="&#xa4;" horiz-adv-x="1224" 
d="M172 580h-119v176h160q64 151 200.5 241t311.5 90q142 0 240.5 -43t177.5 -141l-191 -160q-44 57 -98 83t-129 26q-138 0 -215 -96h256v-176h-322q-2 -14 -2 -43t2 -43h322v-177h-256q79 -98 215 -98q88 0 143.5 32.5t94.5 92.5l202 -151q-80 -113 -182.5 -162
t-257.5 -49q-171 0 -309.5 92t-202.5 243h-160v177h119q-2 14 -2 43t2 43z" />
    <glyph glyph-name="yen" unicode="&#xa5;" horiz-adv-x="1171" 
d="M444 0v197h-346v176h344l-65 114h-279v177h178l-227 405h307l160 -315q20 -40 40 -92.5t30 -85.5l10 -33q37 121 82 211l162 315h282l-229 -405h178v-177h-278l-66 -114h344v-176h-346v-197h-281z" />
    <glyph glyph-name="brokenbar" unicode="&#xa6;" 
d="M256 354q-72 0 -123 49.5t-51 124.5q0 74 51 123t123 49q70 0 121 -49t51 -123q0 -75 -50.5 -124.5t-121.5 -49.5z" />
    <glyph glyph-name="section" unicode="&#xa7;" horiz-adv-x="1075" 
d="M242 776q-60 78 -60 182q0 135 100.5 221.5t252.5 86.5q134 0 219.5 -51.5t142.5 -157.5l-219 -107q-26 47 -55.5 70.5t-75.5 23.5q-53 0 -79 -21.5t-26 -53.5q0 -33 17.5 -55t58.5 -37l211 -78q289 -106 289 -310q0 -163 -174 -241q51 -70 51 -170q0 -135 -99.5 -212
t-277.5 -77q-146 0 -256 64t-147 155l215 113q55 -109 174 -109q56 0 85 16.5t29 45.5q0 26 -16.5 43.5t-60.5 34.5l-193 73q-151 58 -221 133.5t-70 188.5q0 81 51.5 139t133.5 90zM705 354q59 27 59 86q0 41 -25 69t-82 50l-211 80q-39 13 -81 37q-54 -25 -54 -86
q0 -43 23 -71.5t78 -49.5l198 -74q41 -15 95 -41z" />
    <glyph glyph-name="dieresis" unicode="&#xa8;" horiz-adv-x="1024" 
d="M735 1036q-61 0 -108 46t-47 110t47 110t108 46q62 0 109 -46t47 -110t-47 -110t-109 -46zM289 1036q-61 0 -108.5 46.5t-47.5 109.5t47.5 109.5t108.5 46.5q62 0 108.5 -46t46.5 -110t-46.5 -110t-108.5 -46z" />
    <glyph glyph-name="copyright" unicode="&#xa9;" horiz-adv-x="1216" 
d="M612 -10q-110 0 -211 41.5t-176.5 113.5t-120.5 175t-45 219q0 154 76.5 281t203 197t273.5 70q145 0 269.5 -70t200 -197t75.5 -281q0 -116 -44.5 -219t-119 -175t-174 -113.5t-207.5 -41.5zM612 111q175 0 296.5 119t121.5 309t-121.5 309t-296.5 119
q-179 0 -302.5 -118.5t-123.5 -309.5t123.5 -309.5t302.5 -118.5zM623 238q-138 0 -227 84.5t-89 216.5q0 133 87 219t220 86q151 0 254 -111l-145 -135q-36 45 -90 45q-45 0 -68.5 -28t-23.5 -76q0 -45 25.5 -75t70.5 -30q58 0 88 43l147 -129q-95 -110 -249 -110z" />
    <glyph glyph-name="ordfeminine" unicode="&#xaa;" horiz-adv-x="876" 
d="M532 770q-3 59 -32 86t-84 27q-42 0 -76.5 -11.5t-51 -24t-38.5 -32.5l-150 141q59 59 137 95t209 36q145 0 240.5 -83.5t95.5 -247.5v-424h-250l7 92q-75 -111 -211 -111q-114 0 -189.5 59.5t-75.5 172.5q0 111 82 168t217 57h170zM532 623h-147q-38 0 -56 -16.5
t-18 -43.5q0 -24 21 -40.5t63 -16.5q69 0 103 27t34 69v21z" />
    <glyph glyph-name="guillemotleft" unicode="&#xab;" horiz-adv-x="1032" 
d="M700 66l-194 344v16l194 338h267l-201 -346l201 -352h-267zM260 66l-194 344v16l194 338h266l-200 -346l200 -352h-266z" />
    <glyph glyph-name="logicalnot" unicode="&#xac;" 
d="M256 354q-72 0 -123 49.5t-51 124.5q0 74 51 123t123 49q70 0 121 -49t51 -123q0 -75 -50.5 -124.5t-121.5 -49.5z" />
    <glyph glyph-name="registered" unicode="&#xae;" horiz-adv-x="1030" 
d="M512 518q-124 0 -227.5 57t-164.5 160t-61 230q0 194 131.5 320t321.5 126q125 0 230 -56t167 -159t62 -231q0 -192 -133.5 -319.5t-325.5 -127.5zM512 616q153 0 251.5 94t98.5 251q0 164 -97.5 258t-252.5 94q-153 0 -248.5 -94t-95.5 -258q0 -157 96 -251t248 -94z
M645 881l76 -138h-139l-56 111h-51v-111h-135v445h190q86 0 137.5 -48.5t51.5 -115.5q0 -95 -74 -143zM475 961h60q19 0 35 13t16 44q0 26 -17 39.5t-34 13.5h-60v-110z" />
    <glyph glyph-name="macron" unicode="&#xaf;" horiz-adv-x="1024" 
d="M262 1077v203h500v-203h-500z" />
    <glyph glyph-name="macron" unicode="&#x2c9;" horiz-adv-x="1024" 
d="M262 1077v203h500v-203h-500z" />
    <glyph glyph-name="degree" unicode="&#xb0;" horiz-adv-x="679" 
d="M340 549q-118 0 -202.5 79t-84.5 191q0 114 84 191t203 77q120 0 203.5 -77t83.5 -191q0 -112 -84 -191t-203 -79zM340 713q45 0 73.5 29.5t28.5 76.5t-28.5 76t-73.5 29t-73.5 -29t-28.5 -76t28.5 -76.5t73.5 -29.5z" />
    <glyph glyph-name="twosuperior" unicode="&#xb2;" 
d="M256 354q-72 0 -123 49.5t-51 124.5q0 74 51 123t123 49q70 0 121 -49t51 -123q0 -75 -50.5 -124.5t-121.5 -49.5z" />
    <glyph glyph-name="threesuperior" unicode="&#xb3;" 
d="M256 354q-72 0 -123 49.5t-51 124.5q0 74 51 123t123 49q70 0 121 -49t51 -123q0 -75 -50.5 -124.5t-121.5 -49.5z" />
    <glyph glyph-name="acute" unicode="&#xb4;" horiz-adv-x="1024" 
d="M410 1024l106 385h315l-213 -385h-208z" />
    <glyph glyph-name="mu" unicode="&#xb5;" 
d="M256 354q-72 0 -123 49.5t-51 124.5q0 74 51 123t123 49q70 0 121 -49t51 -123q0 -75 -50.5 -124.5t-121.5 -49.5z" />
    <glyph glyph-name="mu" unicode="&#x3bc;" 
d="M256 354q-72 0 -123 49.5t-51 124.5q0 74 51 123t123 49q70 0 121 -49t51 -123q0 -75 -50.5 -124.5t-121.5 -49.5z" />
    <glyph glyph-name="paragraph" unicode="&#xb6;" horiz-adv-x="1449" 
d="M625 0v498h-68q-233 0 -362 125.5t-129 314.5q0 90 32 171t91.5 145t154.5 101.5t213 37.5h748v-1393h-273v1153h-135v-1153h-272zM565 737h60v416h-60q-86 0 -141 -52t-55 -155q0 -104 55 -156.5t141 -52.5z" />
    <glyph glyph-name="periodcentered" unicode="&#xb7;" horiz-adv-x="509" 
d="M256 354q-72 0 -123 49.5t-51 124.5q0 74 51 123t123 49q70 0 121 -49t51 -123q0 -75 -50.5 -124.5t-121.5 -49.5z" />
    <glyph glyph-name="periodcentered" unicode="&#x2219;" horiz-adv-x="509" 
d="M256 354q-72 0 -123 49.5t-51 124.5q0 74 51 123t123 49q70 0 121 -49t51 -123q0 -75 -50.5 -124.5t-121.5 -49.5z" />
    <glyph glyph-name="cedilla" unicode="&#xb8;" horiz-adv-x="1024" 
d="M530 -492q-169 0 -241 123l131 80q29 -57 88 -57q31 0 52.5 18t21.5 52t-23 51.5t-61 17.5h-70v207h141v-80q78 -15 130.5 -69.5t52.5 -143.5q0 -88 -67 -143.5t-155 -55.5z" />
    <glyph glyph-name="onesuperior" unicode="&#xb9;" 
d="M256 354q-72 0 -123 49.5t-51 124.5q0 74 51 123t123 49q70 0 121 -49t51 -123q0 -75 -50.5 -124.5t-121.5 -49.5z" />
    <glyph glyph-name="ordmasculine" unicode="&#xba;" horiz-adv-x="980" 
d="M492 311q-173 0 -292.5 111t-119.5 278q0 165 119.5 276t292.5 111q171 0 290 -111t119 -276q0 -167 -118.5 -278t-290.5 -111zM492 522q70 0 111.5 48t41.5 130q0 79 -41.5 126.5t-111.5 47.5q-71 0 -111.5 -47.5t-40.5 -126.5q0 -82 40.5 -130t111.5 -48z" />
    <glyph glyph-name="guillemotright" unicode="&#xbb;" horiz-adv-x="1032" 
d="M506 66l201 346l-201 352h266l195 -344v-17l-195 -337h-266zM66 66l200 346l-200 352h266l194 -344v-17l-194 -337h-266z" />
    <glyph glyph-name="onequarter" unicode="&#xbc;" 
d="M256 354q-72 0 -123 49.5t-51 124.5q0 74 51 123t123 49q70 0 121 -49t51 -123q0 -75 -50.5 -124.5t-121.5 -49.5z" />
    <glyph glyph-name="onehalf" unicode="&#xbd;" 
d="M256 354q-72 0 -123 49.5t-51 124.5q0 74 51 123t123 49q70 0 121 -49t51 -123q0 -75 -50.5 -124.5t-121.5 -49.5z" />
    <glyph glyph-name="threequarters" unicode="&#xbe;" 
d="M256 354q-72 0 -123 49.5t-51 124.5q0 74 51 123t123 49q70 0 121 -49t51 -123q0 -75 -50.5 -124.5t-121.5 -49.5z" />
    <glyph glyph-name="questiondown" unicode="&#xbf;" horiz-adv-x="1050" 
d="M567 1405q72 0 123 -49.5t51 -124.5q0 -74 -51 -123t-123 -49q-70 0 -121 49t-51 123q0 75 50.5 124.5t121.5 49.5zM694 920v-326h-94q-118 0 -173.5 -55t-55.5 -140q0 -68 48 -120t124 -52q80 0 128.5 33t88.5 100l221 -129q-114 -249 -438 -249q-106 0 -194 35t-144 93
t-86.5 133t-30.5 156q0 165 90 270t258 130v121h258z" />
    <glyph glyph-name="Agrave" unicode="&#xc0;" horiz-adv-x="1359" 
d="M573 1532l-213 385h316l106 -385h-209zM43 0l612 1405h25l637 -1405h-301l-66 158h-565l-66 -158h-276zM481 397h367l-100 242q-18 44 -39 106.5t-33 102.5l-12 41q-41 -152 -82 -250z" />
    <glyph glyph-name="Aacute" unicode="&#xc1;" horiz-adv-x="1359" 
d="M567 1532l107 385h315l-213 -385h-209zM43 0l612 1405h25l637 -1405h-301l-66 158h-565l-66 -158h-276zM481 397h367l-100 242q-18 44 -39 106.5t-33 102.5l-12 41q-41 -152 -82 -250z" />
    <glyph glyph-name="Acircumflex" unicode="&#xc2;" horiz-adv-x="1359" 
d="M330 1532l325 442h23l326 -442h-222l-114 133l-117 -133h-221zM43 0l612 1405h25l637 -1405h-301l-66 158h-565l-66 -158h-276zM481 397h367l-100 242q-18 44 -39 106.5t-33 102.5l-12 41q-41 -152 -82 -250z" />
    <glyph glyph-name="Atilde" unicode="&#xc3;" horiz-adv-x="1359" 
d="M500 1532l-187 18q7 140 70 213.5t158 73.5q61 0 129 -41q13 -8 30.5 -20t26 -17t20 -9.5t21.5 -4.5q27 0 40.5 22.5t18.5 69.5l187 -18q-7 -140 -69.5 -213.5t-158.5 -73.5q-61 0 -129 41q-13 8 -30 19.5t-25.5 17t-20 10t-22.5 4.5q-50 0 -59 -92zM43 0l612 1405h25
l637 -1405h-301l-66 158h-565l-66 -158h-276zM481 397h367l-100 242q-18 44 -39 106.5t-33 102.5l-12 41q-41 -152 -82 -250z" />
    <glyph glyph-name="Adieresis" unicode="&#xc4;" horiz-adv-x="1359" 
d="M903 1544q-61 0 -108 46t-47 110q0 63 47 109t108 46q62 0 109 -45.5t47 -109.5t-47 -110t-109 -46zM457 1544q-61 0 -108.5 46.5t-47.5 109.5t47.5 109t108.5 46q62 0 108.5 -45.5t46.5 -109.5t-46.5 -110t-108.5 -46zM43 0l612 1405h25l637 -1405h-301l-66 158h-565
l-66 -158h-276zM481 397h367l-100 242q-18 44 -39 106.5t-33 102.5l-12 41q-41 -152 -82 -250z" />
    <glyph glyph-name="Aring" unicode="&#xc5;" horiz-adv-x="1359" 
d="M680 1479q-111 0 -187.5 72t-76.5 171q0 101 76.5 172.5t187.5 71.5t187.5 -71.5t76.5 -172.5q0 -99 -76.5 -171t-187.5 -72zM43 0l612 1405h25l637 -1405h-301l-66 158h-565l-66 -158h-276zM680 1630q38 0 63 24.5t25 67.5t-25 68t-63 25t-63 -25t-25 -68t25 -67.5
t63 -24.5zM481 397h367l-100 242q-18 44 -39 106.5t-33 102.5l-12 41q-41 -152 -82 -250z" />
    <glyph glyph-name="AE" unicode="&#xc6;" horiz-adv-x="2027" 
d="M31 0l956 1393h891v-252h-635v-443h559v-245h-559v-201h664v-252h-951v158h-516l-106 -158h-303zM608 406h348v397q0 36 5 85t11 80l5 31q-41 -106 -88 -176z" />
    <glyph glyph-name="Ccedilla" unicode="&#xc7;" horiz-adv-x="1486" 
d="M705 -10q-263 37 -435 233.5t-172 472.5q0 152 56 285t152.5 226.5t228.5 147.5t280 54q190 0 327 -69.5t230 -215.5l-219 -155q-52 84 -137.5 133t-200.5 49q-187 0 -304.5 -129t-117.5 -326t117.5 -327.5t304.5 -130.5q86 0 155.5 27.5t115.5 70t88 106.5l223 -153
q-91 -140 -229 -220t-322 -87v-62q77 -15 129.5 -69.5t52.5 -143.5q0 -88 -66.5 -143.5t-154.5 -55.5q-170 0 -242 123l131 80q29 -57 88 -57q31 0 52.5 18t21.5 52t-23 51.5t-61 17.5h-69v197z" />
    <glyph glyph-name="Egrave" unicode="&#xc8;" horiz-adv-x="1216" 
d="M528 1532l-213 385h316l106 -385h-209zM145 0v1393h922v-252h-635v-443h559v-245h-559v-201h664v-252h-951z" />
    <glyph glyph-name="Eacute" unicode="&#xc9;" horiz-adv-x="1216" 
d="M504 1532l106 385h316l-213 -385h-209zM145 0v1393h922v-252h-635v-443h559v-245h-559v-201h664v-252h-951z" />
    <glyph glyph-name="Ecircumflex" unicode="&#xca;" horiz-adv-x="1216" 
d="M276 1532l326 442h23l325 -442h-221l-115 133l-116 -133h-222zM145 0v1393h922v-252h-635v-443h559v-245h-559v-201h664v-252h-951z" />
    <glyph glyph-name="Edieresis" unicode="&#xcb;" horiz-adv-x="1216" 
d="M836 1544q-61 0 -108.5 46.5t-47.5 109.5t47.5 109t108.5 46q62 0 108.5 -45.5t46.5 -109.5t-46.5 -110t-108.5 -46zM389 1544q-61 0 -108.5 46.5t-47.5 109.5t47.5 109t108.5 46q62 0 109 -45.5t47 -109.5t-47 -110t-109 -46zM145 0v1393h922v-252h-635v-443h559v-245
h-559v-201h664v-252h-951z" />
    <glyph glyph-name="Igrave" unicode="&#xcc;" horiz-adv-x="587" 
d="M186 1532l-213 385h316l106 -385h-209zM152 0v1393h286v-1393h-286z" />
    <glyph glyph-name="Iacute" unicode="&#xcd;" horiz-adv-x="587" 
d="M190 1532l107 385h315l-213 -385h-209zM152 0v1393h286v-1393h-286z" />
    <glyph glyph-name="Icircumflex" unicode="&#xce;" horiz-adv-x="587" 
d="M-45 1532l326 442h22l326 -442h-221l-115 133l-117 -133h-221zM152 0v1393h286v-1393h-286z" />
    <glyph glyph-name="Idieresis" unicode="&#xcf;" horiz-adv-x="587" 
d="M516 1544q-61 0 -108.5 46.5t-47.5 109.5t47.5 109t108.5 46q62 0 109 -45.5t47 -109.5t-47 -110t-109 -46zM70 1544q-61 0 -108.5 46.5t-47.5 109.5t47.5 109t108.5 46q62 0 108.5 -45.5t46.5 -109.5t-46.5 -110t-108.5 -46zM152 0v1393h286v-1393h-286z" />
    <glyph glyph-name="Eth" unicode="&#xd0;" horiz-adv-x="1402" 
d="M145 0v487h-120v248h120v658h428q212 0 379 -87.5t261 -247t94 -362.5t-93.5 -362t-260.5 -246.5t-380 -87.5h-428zM432 252h127q224 0 337.5 120.5t113.5 323.5q0 204 -113.5 324.5t-337.5 120.5h-127v-406h309v-248h-309v-235z" />
    <glyph glyph-name="Ntilde" unicode="&#xd1;" horiz-adv-x="1435" 
d="M553 1532l-186 18q7 140 69.5 213.5t157.5 73.5q61 0 129 -41q13 -8 30.5 -20t26 -17t20 -9.5t21.5 -4.5q51 0 60 92l186 -18q-7 -140 -69 -213.5t-158 -73.5q-61 0 -129 41q-13 8 -30.5 20t-26 17t-20 9.5t-22.5 4.5q-50 0 -59 -92zM1262 -12l-703 659q-31 29 -72.5 77
t-67.5 81l-26 33q21 -154 21 -254v-584h-269v1405h29l703 -660q30 -28 71 -75.5t66 -81.5l26 -33q-18 158 -18 254v584h268v-1405h-28z" />
    <glyph glyph-name="Ograve" unicode="&#xd2;" horiz-adv-x="1638" 
d="M713 1532l-213 385h315l107 -385h-209zM819 -18q-149 0 -282 54t-229.5 148t-153 227t-56.5 285t56.5 285.5t153 227t230 148t281.5 54.5t281.5 -54.5t230 -148t153 -227t56.5 -285.5t-56.5 -285t-153 -227t-229.5 -148t-282 -54zM819 238q188 0 307 130.5t119 327.5
t-119 328t-307 131t-307 -131t-119 -328t119 -327.5t307 -130.5z" />
    <glyph glyph-name="Oacute" unicode="&#xd3;" horiz-adv-x="1638" 
d="M717 1532l106 385h316l-213 -385h-209zM819 -18q-149 0 -282 54t-229.5 148t-153 227t-56.5 285t56.5 285.5t153 227t230 148t281.5 54.5t281.5 -54.5t230 -148t153 -227t56.5 -285.5t-56.5 -285t-153 -227t-229.5 -148t-282 -54zM819 238q188 0 307 130.5t119 327.5
t-119 328t-307 131t-307 -131t-119 -328t119 -327.5t307 -130.5z" />
    <glyph glyph-name="Ocircumflex" unicode="&#xd4;" horiz-adv-x="1638" 
d="M481 1532l326 442h22l326 -442h-221l-115 133l-117 -133h-221zM819 -18q-149 0 -282 54t-229.5 148t-153 227t-56.5 285t56.5 285.5t153 227t230 148t281.5 54.5t281.5 -54.5t230 -148t153 -227t56.5 -285.5t-56.5 -285t-153 -227t-229.5 -148t-282 -54zM819 238
q188 0 307 130.5t119 327.5t-119 328t-307 131t-307 -131t-119 -328t119 -327.5t307 -130.5z" />
    <glyph glyph-name="Otilde" unicode="&#xd5;" horiz-adv-x="1638" 
d="M655 1532l-186 18q7 140 69.5 213.5t157.5 73.5q61 0 129 -41q12 -7 30.5 -19.5t26.5 -17.5t20 -9.5t22 -4.5q27 0 40.5 22.5t18.5 69.5l186 -18q-7 -140 -69 -213.5t-158 -73.5q-61 0 -129 41q-13 8 -30 19.5t-25.5 17t-20 10t-22.5 4.5q-51 0 -60 -92zM819 -18
q-149 0 -282 54t-229.5 148t-153 227t-56.5 285t56.5 285.5t153 227t230 148t281.5 54.5t281.5 -54.5t230 -148t153 -227t56.5 -285.5t-56.5 -285t-153 -227t-229.5 -148t-282 -54zM819 238q188 0 307 130.5t119 327.5t-119 328t-307 131t-307 -131t-119 -328t119 -327.5
t307 -130.5z" />
    <glyph glyph-name="Odieresis" unicode="&#xd6;" horiz-adv-x="1638" 
d="M1042 1544q-61 0 -108 46t-47 110q0 63 47 109t108 46q62 0 109 -45.5t47 -109.5t-47 -110t-109 -46zM596 1544q-61 0 -108.5 46.5t-47.5 109.5t47.5 109t108.5 46q62 0 109 -45.5t47 -109.5t-47 -110t-109 -46zM819 -18q-149 0 -282 54t-229.5 148t-153 227t-56.5 285
t56.5 285.5t153 227t230 148t281.5 54.5t281.5 -54.5t230 -148t153 -227t56.5 -285.5t-56.5 -285t-153 -227t-229.5 -148t-282 -54zM819 238q188 0 307 130.5t119 327.5t-119 328t-307 131t-307 -131t-119 -328t119 -327.5t307 -130.5z" />
    <glyph glyph-name="multiply" unicode="&#xd7;" 
d="M256 354q-72 0 -123 49.5t-51 124.5q0 74 51 123t123 49q70 0 121 -49t51 -123q0 -75 -50.5 -124.5t-121.5 -49.5z" />
    <glyph glyph-name="Oslash" unicode="&#xd8;" horiz-adv-x="1638" 
d="M233 -20l-159 157l151 144q-127 186 -127 415q0 152 56.5 285.5t153 227t230 148t281.5 54.5q248 0 438 -141l148 141l160 -158l-152 -143q127 -183 127 -414q0 -152 -56.5 -285t-153 -227t-229.5 -148t-282 -54q-245 0 -436 139zM434 481l629 602q-104 74 -244 74
q-188 0 -308 -132t-120 -329q0 -122 43 -215zM819 236q188 0 308 131.5t120 328.5q0 120 -41 213l-631 -602q103 -71 244 -71z" />
    <glyph glyph-name="Ugrave" unicode="&#xd9;" horiz-adv-x="1404" 
d="M596 1532l-213 385h315l107 -385h-209zM705 -18q-122 0 -224.5 32.5t-179 96t-119.5 164t-43 229.5v889h287v-873q0 -150 67 -215t212 -65q143 0 208.5 65t65.5 215v873h287v-889q0 -171 -75 -290.5t-199.5 -175.5t-286.5 -56z" />
    <glyph glyph-name="Uacute" unicode="&#xda;" horiz-adv-x="1404" 
d="M600 1532l107 385h315l-213 -385h-209zM705 -18q-122 0 -224.5 32.5t-179 96t-119.5 164t-43 229.5v889h287v-873q0 -150 67 -215t212 -65q143 0 208.5 65t65.5 215v873h287v-889q0 -171 -75 -290.5t-199.5 -175.5t-286.5 -56z" />
    <glyph glyph-name="Ucircumflex" unicode="&#xdb;" horiz-adv-x="1404" 
d="M365 1532l325 442h23l325 -442h-221l-115 133l-116 -133h-221zM705 -18q-122 0 -224.5 32.5t-179 96t-119.5 164t-43 229.5v889h287v-873q0 -150 67 -215t212 -65q143 0 208.5 65t65.5 215v873h287v-889q0 -171 -75 -290.5t-199.5 -175.5t-286.5 -56z" />
    <glyph glyph-name="Udieresis" unicode="&#xdc;" horiz-adv-x="1404" 
d="M926 1544q-61 0 -108.5 46.5t-47.5 109.5t47.5 109t108.5 46q62 0 108.5 -45.5t46.5 -109.5t-46.5 -110t-108.5 -46zM479 1544q-61 0 -108 46t-47 110q0 63 47 109t108 46q62 0 109 -45.5t47 -109.5t-47 -110t-109 -46zM705 -18q-122 0 -224.5 32.5t-179 96t-119.5 164
t-43 229.5v889h287v-873q0 -150 67 -215t212 -65q143 0 208.5 65t65.5 215v873h287v-889q0 -171 -75 -290.5t-199.5 -175.5t-286.5 -56z" />
    <glyph glyph-name="Yacute" unicode="&#xdd;" horiz-adv-x="1396" 
d="M600 1532l107 385h315l-213 -385h-209zM571 0v442l-528 951h317l246 -449q24 -44 52 -110t44 -110l17 -44q55 164 108 264l236 449h293l-496 -930v-463h-289z" />
    <glyph glyph-name="Thorn" unicode="&#xde;" horiz-adv-x="1230" 
d="M145 0v1393h287v-150h98q292 0 457.5 -143t165.5 -395t-166 -394.5t-457 -142.5h-98v-168h-287zM432 420h90q173 0 254.5 70.5t81.5 214.5q0 145 -82.5 215.5t-253.5 70.5h-90v-571z" />
    <glyph glyph-name="germandbls" unicode="&#xdf;" horiz-adv-x="1191" 
d="M670 -12q-110 0 -178 22l30 228q53 -17 99 -17q210 0 210 217q0 129 -78 187t-218 53v217q176 22 176 203q0 180 -158 180q-77 0 -122.5 -54t-45.5 -157v-1067h-276v1059q0 213 122.5 329.5t321.5 116.5q200 0 311 -107.5t111 -287.5q0 -195 -160 -285
q140 -41 219.5 -140.5t79.5 -254.5q0 -200 -116.5 -321t-327.5 -121z" />
    <glyph glyph-name="agrave" unicode="&#xe0;" horiz-adv-x="999" 
d="M420 1024l-213 385h315l107 -385h-209zM623 518q-6 146 -146 146q-48 0 -89.5 -14t-62 -28.5t-46.5 -37.5l-154 164q72 70 155 106.5t224 36.5q177 0 285 -99t108 -296v-496h-274l6 121q-49 -75 -109.5 -107t-148.5 -32q-63 0 -116 14.5t-97.5 45.5t-69.5 86t-25 128
q0 134 94 198t263 64h203zM623 354h-189q-100 0 -100 -80q0 -77 119 -77q83 0 126.5 32.5t43.5 89.5v35z" />
    <glyph glyph-name="aacute" unicode="&#xe1;" horiz-adv-x="999" 
d="M375 1024l106 385h316l-213 -385h-209zM623 518q-6 146 -146 146q-48 0 -89.5 -14t-62 -28.5t-46.5 -37.5l-154 164q72 70 155 106.5t224 36.5q177 0 285 -99t108 -296v-496h-274l6 121q-49 -75 -109.5 -107t-148.5 -32q-63 0 -116 14.5t-97.5 45.5t-69.5 86t-25 128
q0 134 94 198t263 64h203zM623 354h-189q-100 0 -100 -80q0 -77 119 -77q83 0 126.5 32.5t43.5 89.5v35z" />
    <glyph glyph-name="acircumflex" unicode="&#xe2;" horiz-adv-x="999" 
d="M156 1024l325 442h23l325 -442h-221l-114 133l-117 -133h-221zM623 518q-6 146 -146 146q-48 0 -89.5 -14t-62 -28.5t-46.5 -37.5l-154 164q72 70 155 106.5t224 36.5q177 0 285 -99t108 -296v-496h-274l6 121q-49 -75 -109.5 -107t-148.5 -32q-63 0 -116 14.5
t-97.5 45.5t-69.5 86t-25 128q0 134 94 198t263 64h203zM623 354h-189q-100 0 -100 -80q0 -77 119 -77q83 0 126.5 32.5t43.5 89.5v35z" />
    <glyph glyph-name="atilde" unicode="&#xe3;" horiz-adv-x="999" 
d="M319 1024l-186 18q7 140 69.5 213.5t157.5 73.5q61 0 129 -41q12 -7 30.5 -19.5t26.5 -17.5t20 -9.5t22 -4.5q27 0 40.5 22.5t18.5 69.5l187 -18q-7 -140 -69.5 -213.5t-158.5 -73.5q-61 0 -129 41q-13 8 -30 19.5t-25.5 17t-20 10t-22.5 4.5q-51 0 -60 -92zM623 518
q-6 146 -146 146q-48 0 -89.5 -14t-62 -28.5t-46.5 -37.5l-154 164q72 70 155 106.5t224 36.5q177 0 285 -99t108 -296v-496h-274l6 121q-49 -75 -109.5 -107t-148.5 -32q-63 0 -116 14.5t-97.5 45.5t-69.5 86t-25 128q0 134 94 198t263 64h203zM623 354h-189
q-100 0 -100 -80q0 -77 119 -77q83 0 126.5 32.5t43.5 89.5v35z" />
    <glyph glyph-name="adieresis" unicode="&#xe4;" horiz-adv-x="999" 
d="M721 1036q-61 0 -108.5 46.5t-47.5 109.5t47.5 109.5t108.5 46.5q62 0 109 -46t47 -110t-47 -110t-109 -46zM274 1036q-61 0 -108 46t-47 110t47 110t108 46q62 0 109 -46t47 -110t-47 -110t-109 -46zM623 518q-6 146 -146 146q-48 0 -89.5 -14t-62 -28.5t-46.5 -37.5
l-154 164q72 70 155 106.5t224 36.5q177 0 285 -99t108 -296v-496h-274l6 121q-49 -75 -109.5 -107t-148.5 -32q-63 0 -116 14.5t-97.5 45.5t-69.5 86t-25 128q0 134 94 198t263 64h203zM623 354h-189q-100 0 -100 -80q0 -77 119 -77q83 0 126.5 32.5t43.5 89.5v35z" />
    <glyph glyph-name="aring" unicode="&#xe5;" horiz-adv-x="999" 
d="M498 971q-111 0 -188 72t-77 171q0 101 76.5 172.5t188.5 71.5q111 0 187.5 -71.5t76.5 -172.5q0 -99 -76.5 -171t-187.5 -72zM623 518q-6 146 -146 146q-48 0 -89.5 -14t-62 -28.5t-46.5 -37.5l-154 164q72 70 155 106.5t224 36.5q177 0 285 -99t108 -296v-496h-274
l6 121q-49 -75 -109.5 -107t-148.5 -32q-63 0 -116 14.5t-97.5 45.5t-69.5 86t-25 128q0 134 94 198t263 64h203zM498 1122q38 0 63 24.5t25 67.5t-25 68t-63 25t-63 -25t-25 -68t25 -67.5t63 -24.5zM623 354h-189q-100 0 -100 -80q0 -77 119 -77q83 0 126.5 32.5t43.5 89.5
v35z" />
    <glyph glyph-name="ae" unicode="&#xe6;" horiz-adv-x="1646" 
d="M623 514q-3 77 -39 113.5t-107 36.5q-48 0 -89.5 -14t-62 -28.5t-46.5 -37.5l-154 164q72 70 155 106.5t224 36.5q190 0 280 -127q121 127 320 127q152 0 262 -72.5t160.5 -193.5t40.5 -273h-662q42 -141 225 -141q123 0 220 70l157 -170q-70 -62 -157.5 -95.5
t-214.5 -33.5q-244 0 -367 145q-110 -145 -344 -145q-167 0 -264 66t-97 208q0 258 357 258h203zM901 514h387q-8 69 -54 110.5t-128 41.5q-81 0 -134.5 -38.5t-70.5 -113.5zM623 352h-189q-100 0 -100 -78q0 -77 119 -77q83 0 126.5 32.5t43.5 89.5v33z" />
    <glyph glyph-name="ccedilla" unicode="&#xe7;" horiz-adv-x="980" 
d="M428 -4q-157 37 -253.5 156t-96.5 286q0 197 136 325t341 128q125 0 211.5 -43t155.5 -131l-197 -160q-25 40 -71.5 66t-98.5 26q-92 0 -143.5 -58t-51.5 -153q0 -97 51.5 -157t143.5 -60q59 0 98 21.5t78 60.5l187 -164q-67 -75 -149 -114.5t-200 -42.5v-62
q78 -15 130.5 -69.5t52.5 -143.5q0 -88 -67 -143.5t-155 -55.5q-169 0 -241 123l131 80q29 -57 88 -57q31 0 52.5 18t21.5 52t-23 51.5t-61 17.5h-70v203z" />
    <glyph glyph-name="egrave" unicode="&#xe8;" horiz-adv-x="1101" 
d="M465 1024l-213 385h315l107 -385h-209zM360 352q42 -141 226 -141q122 0 219 70l158 -170q-70 -62 -158 -95.5t-215 -33.5q-231 0 -371.5 126.5t-140.5 329.5q0 196 138.5 324.5t342.5 128.5q229 0 353.5 -152t109.5 -387h-662zM356 512h387q-9 73 -55.5 113.5
t-126.5 40.5q-171 0 -205 -154z" />
    <glyph glyph-name="eacute" unicode="&#xe9;" horiz-adv-x="1101" 
d="M449 1024l106 385h315l-213 -385h-208zM360 352q42 -141 226 -141q122 0 219 70l158 -170q-70 -62 -158 -95.5t-215 -33.5q-231 0 -371.5 126.5t-140.5 329.5q0 196 138.5 324.5t342.5 128.5q229 0 353.5 -152t109.5 -387h-662zM356 512h387q-9 73 -55.5 113.5
t-126.5 40.5q-171 0 -205 -154z" />
    <glyph glyph-name="ecircumflex" unicode="&#xea;" horiz-adv-x="1101" 
d="M213 1024l326 442h22l326 -442h-221l-115 133l-117 -133h-221zM360 352q42 -141 226 -141q122 0 219 70l158 -170q-70 -62 -158 -95.5t-215 -33.5q-231 0 -371.5 126.5t-140.5 329.5q0 196 138.5 324.5t342.5 128.5q229 0 353.5 -152t109.5 -387h-662zM356 512h387
q-9 73 -55.5 113.5t-126.5 40.5q-171 0 -205 -154z" />
    <glyph glyph-name="edieresis" unicode="&#xeb;" horiz-adv-x="1101" 
d="M774 1036q-61 0 -108.5 46.5t-47.5 109.5t47.5 109.5t108.5 46.5q62 0 109 -46t47 -110t-47 -110t-109 -46zM328 1036q-61 0 -108.5 46.5t-47.5 109.5t47.5 109.5t108.5 46.5q62 0 108.5 -46t46.5 -110t-46.5 -110t-108.5 -46zM360 352q42 -141 226 -141q122 0 219 70
l158 -170q-70 -62 -158 -95.5t-215 -33.5q-231 0 -371.5 126.5t-140.5 329.5q0 196 138.5 324.5t342.5 128.5q229 0 353.5 -152t109.5 -387h-662zM356 512h387q-9 73 -55.5 113.5t-126.5 40.5q-171 0 -205 -154z" />
    <glyph glyph-name="igrave" unicode="&#xec;" horiz-adv-x="514" 
d="M150 1024l-213 385h315l106 -385h-208zM119 0v872h276v-872h-276z" />
    <glyph glyph-name="iacute" unicode="&#xed;" horiz-adv-x="514" 
d="M143 1024l107 385h315l-213 -385h-209zM119 0v872h276v-872h-276z" />
    <glyph glyph-name="icircumflex" unicode="&#xee;" horiz-adv-x="514" 
d="M-82 1024l326 442h22l326 -442h-221l-115 133l-117 -133h-221zM119 0v872h276v-872h-276z" />
    <glyph glyph-name="idieresis" unicode="&#xef;" horiz-adv-x="514" 
d="M479 1036q-61 0 -108 46t-47 110t47 110t108 46q62 0 109 -46t47 -110t-47 -110t-109 -46zM33 1036q-61 0 -108.5 46.5t-47.5 109.5t47.5 109.5t108.5 46.5q62 0 108.5 -46t46.5 -110t-46.5 -110t-108.5 -46zM119 0v872h276v-872h-276z" />
    <glyph glyph-name="eth" unicode="&#xf0;" horiz-adv-x="1116" 
d="M545 1081l-117 -112l-127 125l125 120q-64 64 -137 125l143 174q123 -95 166 -135l115 111l127 -125l-115 -109q313 -338 313 -778q0 -236 -134 -365.5t-345 -129.5q-204 0 -342.5 128t-138.5 324q0 129 63 235.5t161.5 164t207.5 57.5q114 0 180 -49q-43 112 -145 239z
M559 215q91 0 144 60.5t53 158.5q0 99 -53 159t-144 60q-92 0 -145.5 -60t-53.5 -159q0 -98 54 -158.5t145 -60.5z" />
    <glyph glyph-name="ntilde" unicode="&#xf1;" horiz-adv-x="1085" 
d="M379 1024l-186 18q7 140 69.5 213.5t157.5 73.5q61 0 129 -41q13 -8 30.5 -20t26 -17t20 -9.5t21.5 -4.5q51 0 60 92l186 -18q-7 -140 -69 -213.5t-158 -73.5q-61 0 -129 41q-13 8 -30.5 20t-26 17t-20 9.5t-22.5 4.5q-50 0 -59 -92zM109 0v872h276l-6 -143
q40 78 112.5 120t163.5 42q146 0 237 -102.5t91 -284.5v-504h-276v485q0 75 -36.5 114.5t-109.5 39.5q-84 0 -130 -44.5t-46 -127.5v-467h-276z" />
    <glyph glyph-name="ograve" unicode="&#xf2;" horiz-adv-x="1116" 
d="M444 1024l-213 385h316l106 -385h-209zM559 -18q-204 0 -342.5 128t-138.5 324q0 198 138.5 327.5t342.5 129.5t341.5 -129.5t137.5 -327.5q0 -196 -137.5 -324t-341.5 -128zM559 215q91 0 144 60.5t53 158.5q0 99 -53 159t-144 60q-92 0 -145.5 -60t-53.5 -159
q0 -98 54 -158.5t145 -60.5z" />
    <glyph glyph-name="oacute" unicode="&#xf3;" horiz-adv-x="1116" 
d="M461 1024l106 385h316l-213 -385h-209zM559 -18q-204 0 -342.5 128t-138.5 324q0 198 138.5 327.5t342.5 129.5t341.5 -129.5t137.5 -327.5q0 -196 -137.5 -324t-341.5 -128zM559 215q91 0 144 60.5t53 158.5q0 99 -53 159t-144 60q-92 0 -145.5 -60t-53.5 -159
q0 -98 54 -158.5t145 -60.5z" />
    <glyph glyph-name="ocircumflex" unicode="&#xf4;" horiz-adv-x="1116" 
d="M219 1024l326 442h22l326 -442h-221l-115 133l-117 -133h-221zM559 -18q-204 0 -342.5 128t-138.5 324q0 198 138.5 327.5t342.5 129.5t341.5 -129.5t137.5 -327.5q0 -196 -137.5 -324t-341.5 -128zM559 215q91 0 144 60.5t53 158.5q0 99 -53 159t-144 60
q-92 0 -145.5 -60t-53.5 -159q0 -98 54 -158.5t145 -60.5z" />
    <glyph glyph-name="otilde" unicode="&#xf5;" horiz-adv-x="1116" 
d="M393 1024l-186 18q7 140 69.5 213.5t157.5 73.5q61 0 129 -41q12 -7 30.5 -19.5t26.5 -17.5t20 -9.5t22 -4.5q27 0 40.5 22.5t18.5 69.5l186 -18q-7 -140 -69 -213.5t-158 -73.5q-61 0 -129 41q-13 8 -30 19.5t-25.5 17t-20 10t-22.5 4.5q-51 0 -60 -92zM559 -18
q-204 0 -342.5 128t-138.5 324q0 198 138.5 327.5t342.5 129.5t341.5 -129.5t137.5 -327.5q0 -196 -137.5 -324t-341.5 -128zM559 215q91 0 144 60.5t53 158.5q0 99 -53 159t-144 60q-92 0 -145.5 -60t-53.5 -159q0 -98 54 -158.5t145 -60.5z" />
    <glyph glyph-name="odieresis" unicode="&#xf6;" horiz-adv-x="1116" 
d="M780 1036q-61 0 -108 46t-47 110t47 110t108 46q62 0 109 -46t47 -110t-47 -110t-109 -46zM334 1036q-61 0 -108.5 46.5t-47.5 109.5t47.5 109.5t108.5 46.5q62 0 108.5 -46t46.5 -110t-46.5 -110t-108.5 -46zM559 -18q-204 0 -342.5 128t-138.5 324q0 198 138.5 327.5
t342.5 129.5t341.5 -129.5t137.5 -327.5q0 -196 -137.5 -324t-341.5 -128zM559 215q91 0 144 60.5t53 158.5q0 99 -53 159t-144 60q-92 0 -145.5 -60t-53.5 -159q0 -98 54 -158.5t145 -60.5z" />
    <glyph glyph-name="divide" unicode="&#xf7;" 
d="M256 354q-72 0 -123 49.5t-51 124.5q0 74 51 123t123 49q70 0 121 -49t51 -123q0 -75 -50.5 -124.5t-121.5 -49.5z" />
    <glyph glyph-name="oslash" unicode="&#xf8;" horiz-adv-x="1116" 
d="M969 672q69 -104 69 -238q0 -196 -137.5 -324t-341.5 -128q-170 0 -299 96l-125 -107l-106 127l118 99q-69 107 -69 237q0 198 138.5 327.5t342.5 129.5q168 0 297 -96l125 106l106 -129zM352 371l316 266q-52 27 -109 27q-96 0 -154.5 -63.5t-58.5 -166.5q0 -33 6 -63z
M764 500l-318 -267q48 -28 113 -28q96 0 153.5 63.5t57.5 165.5q0 36 -6 66z" />
    <glyph glyph-name="ugrave" unicode="&#xf9;" horiz-adv-x="1081" 
d="M434 1024l-213 385h316l106 -385h-209zM428 -18q-146 0 -236 102.5t-90 284.5v503h277v-485q0 -75 36.5 -115.5t108.5 -40.5q83 0 127.5 45.5t44.5 129.5v466h277v-872h-277l6 143q-40 -78 -111.5 -119.5t-162.5 -41.5z" />
    <glyph glyph-name="uacute" unicode="&#xfa;" horiz-adv-x="1081" 
d="M438 1024l107 385h315l-213 -385h-209zM428 -18q-146 0 -236 102.5t-90 284.5v503h277v-485q0 -75 36.5 -115.5t108.5 -40.5q83 0 127.5 45.5t44.5 129.5v466h277v-872h-277l6 143q-40 -78 -111.5 -119.5t-162.5 -41.5z" />
    <glyph glyph-name="ucircumflex" unicode="&#xfb;" horiz-adv-x="1081" 
d="M203 1024l325 442h23l326 -442h-222l-114 133l-117 -133h-221zM428 -18q-146 0 -236 102.5t-90 284.5v503h277v-485q0 -75 36.5 -115.5t108.5 -40.5q83 0 127.5 45.5t44.5 129.5v466h277v-872h-277l6 143q-40 -78 -111.5 -119.5t-162.5 -41.5z" />
    <glyph glyph-name="udieresis" unicode="&#xfc;" horiz-adv-x="1081" 
d="M764 1036q-61 0 -108.5 46.5t-47.5 109.5t47.5 109.5t108.5 46.5q62 0 109 -46t47 -110t-47 -110t-109 -46zM317 1036q-61 0 -108 46t-47 110t47 110t108 46q62 0 109 -46t47 -110t-47 -110t-109 -46zM428 -18q-146 0 -236 102.5t-90 284.5v503h277v-485
q0 -75 36.5 -115.5t108.5 -40.5q83 0 127.5 45.5t44.5 129.5v466h277v-872h-277l6 143q-40 -78 -111.5 -119.5t-162.5 -41.5z" />
    <glyph glyph-name="yacute" unicode="&#xfd;" horiz-adv-x="1003" 
d="M418 1024l106 385h316l-213 -385h-209zM137 -434l228 516l-347 790h306l125 -335q14 -36 29 -92.5t24 -94.5l8 -39q26 146 59 226l136 335h280l-571 -1306h-277z" />
    <glyph glyph-name="thorn" unicode="&#xfe;" horiz-adv-x="1136" 
d="M117 -434v1913h276v-729q93 141 275 141q163 0 276 -127.5t113 -325.5q0 -197 -116 -326.5t-279 -129.5q-96 0 -165 36.5t-104 98.5v-551h-276zM582 223q88 0 139 56.5t51 158.5q0 97 -51 153t-139 56q-90 0 -143.5 -56.5t-53.5 -152.5q0 -101 53.5 -158t143.5 -57z" />
    <glyph glyph-name="ydieresis" unicode="&#xff;" horiz-adv-x="1003" 
d="M723 1036q-61 0 -108.5 46.5t-47.5 109.5t47.5 109.5t108.5 46.5q62 0 109 -46t47 -110t-47 -110t-109 -46zM276 1036q-61 0 -108 46t-47 110t47 110t108 46q62 0 109 -46t47 -110t-47 -110t-109 -46zM137 -434l228 516l-347 790h306l125 -335q14 -36 29 -92.5t24 -94.5
l8 -39q26 146 59 226l136 335h280l-571 -1306h-277z" />
    <glyph glyph-name="dotlessi" unicode="&#x131;" horiz-adv-x="514" 
d="M119 0v872h276v-872h-276z" />
    <glyph glyph-name="Lslash" unicode="&#x141;" horiz-adv-x="1169" 
d="M166 0v362l-152 -51v250l152 51v781h287v-680l368 127v-250l-368 -127v-211h630v-252h-917z" />
    <glyph glyph-name="lslash" unicode="&#x142;" horiz-adv-x="585" 
d="M156 0v383l-140 -78v266l140 78v830h274v-676l150 84v-266l-150 -84v-537h-274z" />
    <glyph glyph-name="OE" unicode="&#x152;" horiz-adv-x="2041" 
d="M829 0q-212 0 -379 87.5t-260.5 246.5t-93.5 362t93 362t260 247t380 88h1063v-252h-635v-443h560v-245h-560v-201h664v-252h-1092zM844 252h127v889h-127q-224 0 -337.5 -120.5t-113.5 -324.5q0 -203 113.5 -323.5t337.5 -120.5z" />
    <glyph glyph-name="oe" unicode="&#x153;" horiz-adv-x="1775" 
d="M1034 352q42 -141 226 -141q122 0 219 70l157 -170q-70 -62 -157.5 -95.5t-214.5 -33.5q-242 0 -367 151q-112 -151 -338 -151q-204 0 -342.5 128t-138.5 324q0 198 138.5 327.5t342.5 129.5q221 0 336 -150q115 150 338 150q152 0 261.5 -72t160 -193t41.5 -274h-662z
M1030 512h387q-9 73 -55.5 113.5t-126.5 40.5q-171 0 -205 -154zM559 215q91 0 144 60.5t53 158.5q0 99 -53 159t-144 60q-92 0 -145.5 -60t-53.5 -159q0 -98 54 -158.5t145 -60.5z" />
    <glyph glyph-name="Scaron" unicode="&#x160;" horiz-adv-x="1099" 
d="M512 1493l-326 442h222l114 -133l117 133h221l-325 -442h-23zM547 -18q-190 0 -322.5 79.5t-199.5 212.5l233 136q51 -83 117.5 -128.5t165.5 -45.5q88 0 141 39.5t53 101.5q0 24 -5.5 43.5t-20.5 37t-28.5 29.5t-42.5 27.5t-50 25t-62 27.5l-71 31q-83 35 -142 72.5
t-107 88.5t-71.5 118.5t-23.5 152.5q0 164 115 271.5t304 107.5q140 0 239.5 -54t168.5 -175l-223 -144q-37 66 -80 94.5t-105 28.5t-99.5 -35t-37.5 -88q0 -61 38.5 -96t137.5 -78l72 -31q98 -42 163.5 -81.5t117.5 -92t76 -120.5t24 -156q0 -188 -132.5 -293.5
t-342.5 -105.5z" />
    <glyph glyph-name="scaron" unicode="&#x161;" horiz-adv-x="862" 
d="M403 985l-325 442h221l115 -133l116 133h222l-326 -442h-23zM442 -18q-258 0 -397 165l162 144q95 -92 217 -92q66 0 92.5 12.5t26.5 40.5q0 10 -3 17.5t-11.5 13.5t-18 10t-28 9t-35 9t-46.5 11t-55 14q-51 13 -91 31.5t-79 50t-60.5 81.5t-21.5 115q0 140 94 208.5
t244 68.5q200 0 318 -121l-148 -158q-77 66 -168 66q-94 0 -94 -51q0 -30 28.5 -43t108.5 -31q24 -5 37 -8q44 -10 79.5 -22t76 -34t67.5 -50t45.5 -71t18.5 -96q0 -290 -359 -290z" />
    <glyph glyph-name="Ydieresis" unicode="&#x178;" horiz-adv-x="1396" 
d="M922 1544q-61 0 -108.5 46.5t-47.5 109.5t47.5 109t108.5 46q62 0 108.5 -45.5t46.5 -109.5t-46.5 -110t-108.5 -46zM475 1544q-61 0 -108.5 46.5t-47.5 109.5t47.5 109t108.5 46q62 0 109 -45.5t47 -109.5t-47 -110t-109 -46zM571 0v442l-528 951h317l246 -449
q24 -44 52 -110t44 -110l17 -44q55 164 108 264l236 449h293l-496 -930v-463h-289z" />
    <glyph glyph-name="Zcaron" unicode="&#x17d;" horiz-adv-x="1243" 
d="M629 1493l-326 442h221l115 -133l117 133h221l-326 -442h-22zM55 0v25l639 1116h-526v252h969v-25l-637 -1116h602v-252h-1047z" />
    <glyph glyph-name="zcaron" unicode="&#x17e;" horiz-adv-x="913" 
d="M455 985l-326 442h221l115 -133l117 133h221l-326 -442h-22zM47 0v23l379 626h-332v223h754v-22l-387 -627h354v-223h-768z" />
    <glyph glyph-name="florin" unicode="&#x192;" horiz-adv-x="835" 
d="M98 -434l92 805h-122v221h147l39 330q39 344 342 344q93 0 154.5 -32t105.5 -93l-164 -158q-30 49 -80 49q-75 0 -86 -88l-41 -352h217v-221h-241l-92 -805h-271z" />
    <glyph glyph-name="circumflex" unicode="&#x2c6;" horiz-adv-x="1024" 
d="M174 1024l326 442h22l326 -442h-221l-115 133l-117 -133h-221z" />
    <glyph glyph-name="caron" unicode="&#x2c7;" horiz-adv-x="1024" 
d="M502 985l-326 442h221l115 -133l117 133h221l-326 -442h-22z" />
    <glyph glyph-name="breve" unicode="&#x2d8;" horiz-adv-x="1024" 
d="M512 1024q-144 0 -232 80t-100 207l211 30q17 -116 121 -116t121 116l211 -30q-12 -127 -100 -207t-232 -80z" />
    <glyph glyph-name="dotaccent" unicode="&#x2d9;" horiz-adv-x="1024" 
d="M512 1036q-61 0 -108.5 46.5t-47.5 109.5t47.5 109.5t108.5 46.5q62 0 109 -46t47 -110t-47 -110t-109 -46z" />
    <glyph glyph-name="ring" unicode="&#x2da;" horiz-adv-x="1024" 
d="M512 971q-111 0 -187.5 72t-76.5 171q0 101 76.5 172.5t187.5 71.5t187.5 -71.5t76.5 -172.5q0 -99 -76.5 -171t-187.5 -72zM512 1122q38 0 63 24.5t25 67.5t-25 68t-63 25t-63 -25t-25 -68t25 -67.5t63 -24.5z" />
    <glyph glyph-name="ogonek" unicode="&#x2db;" horiz-adv-x="1024" 
d="M498 -492q-93 0 -156 54t-63 153q0 91 81 193l72 92h162l-84 -141q-33 -56 -43 -81.5t-10 -58.5q0 -28 15.5 -43.5t41.5 -15.5q51 0 84 53l135 -78q-37 -64 -91.5 -95.5t-143.5 -31.5z" />
    <glyph glyph-name="tilde" unicode="&#x2dc;" horiz-adv-x="1024" 
d="M348 1024l-186 18q7 140 69.5 213.5t157.5 73.5q61 0 129 -41q13 -8 30.5 -20t26 -17t20 -9.5t21.5 -4.5q51 0 60 92l186 -18q-7 -140 -69 -213.5t-158 -73.5q-61 0 -129 41q-13 8 -30 19.5t-25.5 17t-20 10t-22.5 4.5q-51 0 -60 -92z" />
    <glyph glyph-name="hungarumlaut" unicode="&#x2dd;" horiz-adv-x="1024" 
d="M598 1024l104 385h287l-182 -385h-209zM219 1024l105 385h286l-182 -385h-209z" />
    <glyph glyph-name="Delta" unicode="&#x394;" 
d="M256 354q-72 0 -123 49.5t-51 124.5q0 74 51 123t123 49q70 0 121 -49t51 -123q0 -75 -50.5 -124.5t-121.5 -49.5z" />
    <glyph glyph-name="Delta" unicode="&#x2206;" 
d="M256 354q-72 0 -123 49.5t-51 124.5q0 74 51 123t123 49q70 0 121 -49t51 -123q0 -75 -50.5 -124.5t-121.5 -49.5z" />
    <glyph glyph-name="Omega" unicode="&#x3a9;" 
d="M256 354q-72 0 -123 49.5t-51 124.5q0 74 51 123t123 49q70 0 121 -49t51 -123q0 -75 -50.5 -124.5t-121.5 -49.5z" />
    <glyph glyph-name="Omega" unicode="&#x2126;" 
d="M256 354q-72 0 -123 49.5t-51 124.5q0 74 51 123t123 49q70 0 121 -49t51 -123q0 -75 -50.5 -124.5t-121.5 -49.5z" />
    <glyph glyph-name="pi" unicode="&#x3c0;" 
d="M256 354q-72 0 -123 49.5t-51 124.5q0 74 51 123t123 49q70 0 121 -49t51 -123q0 -75 -50.5 -124.5t-121.5 -49.5z" />
    <glyph glyph-name="endash" unicode="&#x2013;" horiz-adv-x="831" 
d="M61 342v246h709v-246h-709z" />
    <glyph glyph-name="emdash" unicode="&#x2014;" horiz-adv-x="1345" 
d="M61 342v246h1223v-246h-1223z" />
    <glyph glyph-name="quoteleft" unicode="&#x2018;" horiz-adv-x="495" 
d="M250 846q-68 0 -118 47t-50 115q0 44 15 83.5t46 92.5l123 209h133l-77 -234q39 -18 65.5 -58t26.5 -91q0 -69 -49 -116.5t-115 -47.5z" />
    <glyph glyph-name="quoteright" unicode="&#x2019;" horiz-adv-x="495" 
d="M96 860l78 234q-39 18 -65.5 58t-26.5 91q0 69 49 116.5t115 47.5q68 0 118 -47t50 -115q0 -44 -15 -83t-47 -93l-123 -209h-133z" />
    <glyph glyph-name="quotesinglbase" unicode="&#x201a;" horiz-adv-x="495" 
d="M96 -209l78 234q-39 18 -65.5 58t-26.5 91q0 69 49 116.5t115 47.5q68 0 118 -47t50 -115q0 -44 -15 -83t-47 -93l-123 -209h-133z" />
    <glyph glyph-name="quotedblleft" unicode="&#x201c;" horiz-adv-x="940" 
d="M694 846q-68 0 -118 47t-50 115q0 44 15 83t47 93l123 209h133l-78 -234q39 -18 65.5 -58t26.5 -91q0 -69 -49 -116.5t-115 -47.5zM250 846q-68 0 -118 47t-50 115q0 44 15 83.5t46 92.5l123 209h133l-77 -234q39 -18 65.5 -58t26.5 -91q0 -69 -49 -116.5t-115 -47.5z
" />
    <glyph glyph-name="quotedblright" unicode="&#x201d;" horiz-adv-x="940" 
d="M541 860l77 234q-39 18 -65.5 58t-26.5 91q0 69 49 116.5t115 47.5q68 0 118 -47t50 -115q0 -44 -15 -83.5t-46 -92.5l-123 -209h-133zM96 860l78 234q-39 18 -65.5 58t-26.5 91q0 69 49 116.5t115 47.5q68 0 118 -47t50 -115q0 -44 -15 -83t-47 -93l-123 -209h-133z" />
    <glyph glyph-name="quotedblbase" unicode="&#x201e;" horiz-adv-x="940" 
d="M541 -209l77 234q-39 18 -65.5 58t-26.5 91q0 69 49 116.5t115 47.5q68 0 118 -47t50 -115q0 -44 -15 -83.5t-46 -92.5l-123 -209h-133zM96 -209l78 234q-39 18 -65.5 58t-26.5 91q0 69 49 116.5t115 47.5q68 0 118 -47t50 -115q0 -44 -15 -83t-47 -93l-123 -209h-133z
" />
    <glyph glyph-name="dagger" unicode="&#x2020;" horiz-adv-x="741" 
d="M246 494v473h-183v227h183v199h250v-199h182v-227h-182v-473h-250z" />
    <glyph glyph-name="daggerdbl" unicode="&#x2021;" horiz-adv-x="741" 
d="M246 494v198h-183v203h183v96h-183v203h183v199h250v-199h182v-203h-182v-96h182v-203h-182v-198h-250z" />
    <glyph glyph-name="bullet" unicode="&#x2022;" horiz-adv-x="567" 
d="M283 348q-89 0 -154.5 64.5t-65.5 156.5q0 94 65.5 158t154.5 64t155 -64t66 -158q0 -92 -66 -156.5t-155 -64.5z" />
    <glyph glyph-name="ellipsis" unicode="&#x2026;" horiz-adv-x="1513" 
d="M1260 -12q-72 0 -123.5 49.5t-51.5 124.5q0 74 51.5 123t123.5 49q70 0 121 -49t51 -123q0 -75 -50.5 -124.5t-121.5 -49.5zM758 -12q-72 0 -123 49.5t-51 124.5q0 74 51 123t123 49q70 0 121 -49t51 -123q0 -75 -50.5 -124.5t-121.5 -49.5zM256 -12q-72 0 -123 49.5
t-51 124.5q0 74 51 123t123 49q70 0 121 -49t51 -123q0 -75 -50.5 -124.5t-121.5 -49.5z" />
    <glyph glyph-name="perthousand" unicode="&#x2030;" horiz-adv-x="2506" 
d="M387 444q-140 0 -238 91.5t-98 230.5q0 138 98 229.5t238 91.5q139 0 236.5 -91.5t97.5 -229.5q0 -139 -97.5 -230.5t-236.5 -91.5zM401 0l676 1069h273l-676 -1069h-273zM2122 -18q-140 0 -238 91t-98 230q0 138 98 230t238 92q138 0 236 -92t98 -230q0 -139 -97.5 -230
t-236.5 -91zM1366 -18q-140 0 -238 91t-98 230q0 138 98 230t238 92q138 0 236 -92t98 -230q0 -139 -97.5 -230t-236.5 -91zM387 651q42 0 74.5 31.5t32.5 83.5t-32.5 83.5t-74.5 31.5t-74 -31.5t-32 -83.5t32 -83.5t74 -31.5zM2122 188q42 0 74 31.5t32 83.5t-32 83.5
t-74 31.5t-74.5 -31.5t-32.5 -83.5t32.5 -83.5t74.5 -31.5zM1366 188q42 0 74.5 31.5t32.5 83.5t-32.5 83.5t-74.5 31.5t-74 -31.5t-32 -83.5t32 -83.5t74 -31.5z" />
    <glyph glyph-name="guilsinglleft" unicode="&#x2039;" horiz-adv-x="591" 
d="M260 66l-194 344v16l194 338h266l-200 -346l200 -352h-266z" />
    <glyph glyph-name="guilsinglright" unicode="&#x203a;" horiz-adv-x="591" 
d="M66 66l200 346l-200 352h266l194 -344v-17l-194 -337h-266z" />
    <glyph glyph-name="fraction" unicode="&#x2044;" horiz-adv-x="866" 
d="M-41 0l676 1069h272l-676 -1069h-272z" />
    <glyph glyph-name="fraction" unicode="&#x2215;" horiz-adv-x="866" 
d="M-41 0l676 1069h272l-676 -1069h-272z" />
    <glyph glyph-name="Euro" unicode="&#x20ac;" horiz-adv-x="1224" 
d="M172 580h-119v176h160q64 151 200.5 241t311.5 90q142 0 240.5 -43t177.5 -141l-191 -160q-44 57 -98 83t-129 26q-138 0 -215 -96h256v-176h-322q-2 -14 -2 -43t2 -43h322v-177h-256q79 -98 215 -98q88 0 143.5 32.5t94.5 92.5l202 -151q-80 -113 -182.5 -162
t-257.5 -49q-171 0 -309.5 92t-202.5 243h-160v177h119q-2 14 -2 43t2 43z" />
    <glyph glyph-name="trademark" unicode="&#x2122;" horiz-adv-x="1456" 
d="M698 774v627h21l301 -301l301 301h20v-627h-184v252l-127 -145h-18l-129 145v-252h-185zM238 774v467h-166v152h520v-152h-166v-467h-188z" />
    <glyph glyph-name="partialdiff" unicode="&#x2202;" 
d="M256 354q-72 0 -123 49.5t-51 124.5q0 74 51 123t123 49q70 0 121 -49t51 -123q0 -75 -50.5 -124.5t-121.5 -49.5z" />
    <glyph glyph-name="product" unicode="&#x220f;" 
d="M256 354q-72 0 -123 49.5t-51 124.5q0 74 51 123t123 49q70 0 121 -49t51 -123q0 -75 -50.5 -124.5t-121.5 -49.5z" />
    <glyph glyph-name="summation" unicode="&#x2211;" horiz-adv-x="1638" 
d="M973 27q93 -90 198 -90q96 0 164 88l187 -162q-62 -86 -145.5 -131t-202.5 -45q-68 0 -129 18t-121 58t-93.5 68t-94.5 85q-17 15 -25 23q-45 42 -71.5 63t-66 40t-77.5 19q-69 0 -119.5 -37t-95.5 -102l-191 160q69 108 180 156q-172 193 -172 460q0 152 56.5 285
t153 226.5t229.5 147.5t282 54t282 -54t229.5 -147.5t153 -226.5t56.5 -285q0 -263 -158.5 -444.5t-408.5 -226.5zM819 250q189 0 307.5 126t118.5 322q0 197 -119 327t-307 130t-307 -130t-119 -327q0 -196 118.5 -322t307.5 -126z" />
    <glyph glyph-name="minus" unicode="&#x2212;" 
d="M256 354q-72 0 -123 49.5t-51 124.5q0 74 51 123t123 49q70 0 121 -49t51 -123q0 -75 -50.5 -124.5t-121.5 -49.5z" />
    <glyph glyph-name="radical" unicode="&#x221a;" 
d="M256 354q-72 0 -123 49.5t-51 124.5q0 74 51 123t123 49q70 0 121 -49t51 -123q0 -75 -50.5 -124.5t-121.5 -49.5z" />
    <glyph glyph-name="integral" unicode="&#x222b;" 
d="M256 354q-72 0 -123 49.5t-51 124.5q0 74 51 123t123 49q70 0 121 -49t51 -123q0 -75 -50.5 -124.5t-121.5 -49.5z" />
    <glyph glyph-name="approxequal" unicode="&#x2248;" 
d="M256 354q-72 0 -123 49.5t-51 124.5q0 74 51 123t123 49q70 0 121 -49t51 -123q0 -75 -50.5 -124.5t-121.5 -49.5z" />
    <glyph glyph-name="lessequal" unicode="&#x2264;" 
d="M256 354q-72 0 -123 49.5t-51 124.5q0 74 51 123t123 49q70 0 121 -49t51 -123q0 -75 -50.5 -124.5t-121.5 -49.5z" />
    <glyph glyph-name="greaterequal" unicode="&#x2265;" 
d="M256 354q-72 0 -123 49.5t-51 124.5q0 74 51 123t123 49q70 0 121 -49t51 -123q0 -75 -50.5 -124.5t-121.5 -49.5z" />
    <glyph glyph-name="lozenge" unicode="&#x25ca;" 
d="M256 354q-72 0 -123 49.5t-51 124.5q0 74 51 123t123 49q70 0 121 -49t51 -123q0 -75 -50.5 -124.5t-121.5 -49.5z" />
    <glyph glyph-name="plusminus" horiz-adv-x="1783" 
d="M209 0v643h-146v229h146v252q0 168 79 254t232 86q134 0 228 -82l-115 -198q-29 33 -76 33q-33 0 -52.5 -22.5t-19.5 -66.5v-256h314v197q0 205 122.5 320.5t309.5 115.5q91 0 169 -26.5t137.5 -77t93.5 -130t34 -179.5v-1092h-276v1077q0 180 -158 180q-70 0 -113 -43
t-43 -137v-205h203v-229h-203v-643h-276v643h-314v-643h-276z" />
    <glyph glyph-name="apple" horiz-adv-x="509" 
d="M256 354q-72 0 -123 49.5t-51 124.5q0 74 51 123t123 49q70 0 121 -49t51 -123q0 -75 -50.5 -124.5t-121.5 -49.5z" />
    <glyph glyph-name="infinity" horiz-adv-x="1783" 
d="M1528 1018q-72 0 -124 49.5t-52 124.5q0 74 52 123t124 49t123 -49t51 -123q0 -75 -51 -124.5t-123 -49.5zM209 0v643h-146v229h146v252q0 168 79 254t232 86q134 0 228 -82l-115 -198q-29 33 -76 33q-33 0 -52.5 -22.5t-19.5 -66.5v-256h314v293q0 340 321 340
q78 0 130.5 -19.5t99.5 -60.5l-129 -194q-30 26 -74 26q-72 0 -72 -88v-297h590v-872h-276v643h-314v-643h-276v643h-314v-643h-276z" />
    <glyph glyph-name="notequal" horiz-adv-x="1372" 
d="M209 0v643h-146v229h146v252q0 168 79 254t232 86q134 0 228 -82l-115 -198q-29 33 -76 33q-33 0 -52.5 -22.5t-19.5 -66.5v-256h314v293q0 340 321 340q175 0 269 -110l-150 -185q-38 47 -88 47q-76 0 -76 -88v-297h236v-229h-236v-643h-276v643h-314v-643h-276z" />
    </font>
</defs>
</svg>
